Правила форума

  • В этом разделе создание новых тем Запрещено.
  • Для создания новых тем пользуйтесь Корневым разделом DVD и HD фильмы.
Начать новую темуОтветить на тему  [ Сообщений: 2 ] 
Торрент файл
Размер: 8.56 GB • Зарегистрирован: 5 лет • Статус: Проверено
Скачан: 114 раз • Желающих скачать: 0 • Поблагодарили: 21 раз
 Раздают: 0  |  0 KB/s  ]   Качают: 0  |  0 KB/s  ] 
 Полного источника не было 9 месяцев 
Сообщения
 Добавлено: 2013-06-09 14:57
Top-releaser
Аватара пользователя
Стаж: 8 лет 7 месяцев
Сообщений: 1286
Спасибок: 3420
Лайков: 7
Древо жизни / The Tree of Life


«Our picture is a cosmic epic, a hymn to life»

Изображение
Год выпуска: 2011
Страна: США
Жанр: драма
Продолжительность: 02:18:55
Перевод: Субтитры, Профессиональный (полное дублирование)

Режиссер: Терренс Малик
Сценарий: Терренс Малик
Продюсер: Уильям Полад, Деде Гарднер, Сара Грин, Грант Хилл, Брэд Питт
Оператор: Эммануэль Любецки
Композитор: Александр Деспла

В ролях: Брэд Питт (Mr. O'Brien), Шон Пенн (Jack), Джессика Честейн (Mrs. O'Brien), Хантер МакКракен (Young Jack), Ларами Эпплер (R.L.), Тай Шеридан (Steve), Фиона Шоу (Grandmother), Джессика Фусельер (Guide), Николас Гонда (Mr. Reynolds), Уилл Уоллес (Architect), Келли Кунс (Father Haynes), Bryce Boudoin (Robert)
Дублёры: Юрий Деркач (Mr. O'Brien), Валерий Сторожик (Jack), Наталья Грачева (Mrs. O'Brien), Иван Дахненко (Young Jack), Любовь Германова (Grandmother), Василий Дахненко (Father Haynes), Велес Поляновский, Никита Сологалов, Фёдор Дахненко

Описание: Мы наблюдаем за развитием 11-летнего Джека, одного из трех братьев. Поначалу ребенку все кажется чудесным. Глазами своей души он наблюдает за поступками мамы. Она представляет собой любовь и милосердие, в то время как отец пытается научить сына, что в реальном мире на первое место необходимо всегда ставить себя. Каждый родитель старается переманить Джека на свою сторону, и он должен примириться с их притязаниями. Действительность становится мрачнее, когда главному герою в первый раз приходится столкнуться с болью, страданиями и смертью. Некогда абсолютно ясный мир превращается в лабиринт.

Релиз: Изображение Раздача: Изображение

Изображение
Изображение

Бюджет: $32 000 000
Сборы в США: $13 303 319
Сборы в России: $2 557 382
Сборы в мире: $54 303 319
Мировая премьера: 16 мая 2011
Релиз на DVD: 15 ноября 2011, «West Video»
Релиз на Blu-ray: 15 ноября 2011, «West Video»

Знаете ли Вы, что...
  • Всего было отснято 370 миль плёнки, или 364 часа 30 минут материала. На его основе Терренс Малик планирует подготовить к выпуску специальную 6-часовую версию фильма.
  • Впервые о проекте Малик заговорил еще в 1978 году – тогда лента была известна, как «Q».
  • Изначально на главную роль пророчили Колина Фаррелла. Когда компания River Road вновь взялась за проект в 2008 году, велись переговоры также с Хитом Леджером.
Свернуть

Изображение
Качество: BDRip
Формат: Matroska
Видео: AVC; 1280x694 (16:9); 7547 kbps; 23,976 fps; 0,354 bit/pixel
Аудио №1: Russian; AC3; 6 channels
Аудио №2: English; AC3; 640 kbps; CBR; 6 channels; 16 bit

Субтитры №1: Russian
Субтитры №2: English

Изображение
MediaInfo
Общее
Уникальный идентификатор : 200219480681463438706893048538103827666 (0x96A0DE8C5F4604A58190EBF9CF644CD2)
Полное имя : E:\Видео\The.Tree.Of.Life.2011.D.BDRip.720p.[R.G.KINOvNINO].mkv
Формат : Matroska
Версия формата : Version 2
Размер файла : 8,56 Гбайт
Продолжительность : 2 ч. 18 м.
Общий поток : 8826 Кбит/сек
Название фильма : Древо жизни / The Tree of Life (2011) .....:::UNIONGANG:::.....
Дата кодирования : UTC 2011-11-16 23:09:44
Программа кодирования : mkvmerge v5.0.1 ('Es ist Sommer') built on Oct 9 2011 11:55:43
Библиотека кодирования : libebml v1.2.2 + libmatroska v1.3.0

Видео
Идентификатор : 1
Формат : AVC
Формат/Информация : Advanced Video Codec
Профиль формата : High@L4.1
Параметр CABAC формата : Да
Параметр ReFrames формата : 9 кадров
Идентификатор кодека : V_MPEG4/ISO/AVC
Продолжительность : 2 ч. 18 м.
Битрейт : 7547 Кбит/сек
Ширина : 1280 пикселей
Высота : 694 пикселя
Соотношение сторон : 16:9
Частота кадров : 23,976 кадра/сек
Цветовое пространство : YUV
Субдискретизация насыщенности : 4:2:0
Битовая глубина : 8 бит
Тип развёртки : Прогрессивная
Бит/(Пиксели*Кадры) : 0.354
Размер потока : 7,15 Гбайт (84%)
Заголовок : The.Tree.of.Life.2011.Proper.720p.BluRay.x264-HiDt
Библиотека кодирования : x264 core 118 r2085 8a62835
Настройки программы : cabac=1 / ref=9 / deblock=1:-2:-2 / analyse=0x3:0x113 / me=tesa / subme=11 / psy=1 / psy_rd=0.97:0.07 / mixed_ref=1 / me_range=32 / chroma_me=1 / trellis=2 / 8x8dct=1 / cqm=0 / deadzone=21,11 / fast_pskip=0 / chroma_qp_offset=-3 / threads=12 / sliced_threads=0 / nr=0 / decimate=1 / interlaced=0 / bluray_compat=0 / constrained_intra=0 / bframes=6 / b_pyramid=2 / b_adapt=2 / b_bias=0 / direct=3 / weightb=1 / open_gop=0 / weightp=2 / keyint=250 / keyint_min=23 / scenecut=40 / intra_refresh=0 / rc_lookahead=80 / rc=2pass / mbtree=1 / bitrate=7547 / ratetol=1.0 / qcomp=0.55 / qpmin=0 / qpmax=69 / qpstep=4 / cplxblur=20.0 / qblur=0.5 / vbv_maxrate=40000 / vbv_bufsize=40000 / nal_hrd=none / ip_ratio=1.40 / aq=1:1.10
Язык : English
Default : Да
Forced : Да

Аудио #1
Идентификатор : 2
Формат : AC-3
Формат/Информация : Audio Coding 3
Расширение режима : CM (complete main)
Идентификатор кодека : A_AC3
Продолжительность : 2 ч. 18 м.
Вид битрейта : Постоянный
Битрейт : 640 Кбит/сек
Каналы : 6 каналов
Расположение каналов : Front: L C R, Side: L R, LFE
Частота : 48,0 КГц
Битовая глубина : 16 бит
Метод сжатия : С потерями
Задержка видео : 26 с.
Размер потока : 636 Мбайт (7%)
Заголовок : AC3 5.1 @ 640 kb/s [Russian DUB, R5]
Язык : Russian
Default : Да
Forced : Да

Аудио #2
Идентификатор : 3
Формат : AC-3
Формат/Информация : Audio Coding 3
Расширение режима : CM (complete main)
Идентификатор кодека : A_AC3
Продолжительность : 2 ч. 18 м.
Вид битрейта : Постоянный
Битрейт : 640 Кбит/сек
Каналы : 6 каналов
Расположение каналов : Front: L C R, Side: L R, LFE
Частота : 48,0 КГц
Битовая глубина : 16 бит
Метод сжатия : С потерями
Размер потока : 636 Мбайт (7%)
Заголовок : AC3 5.1 @ 640 kb/s [English]
Язык : English
Default : Нет
Forced : Нет

Текст #1
Идентификатор : 4
Формат : UTF-8
Идентификатор кодека : S_TEXT/UTF8
Идентификатор кодека/Информация : UTF-8 Plain Text
Заголовок : Russian [Full]
Язык : Russian
Default : Нет
Forced : Нет

Текст #2
Идентификатор : 5
Формат : UTF-8
Идентификатор кодека : S_TEXT/UTF8
Идентификатор кодека/Информация : UTF-8 Plain Text
Заголовок : English [Full]
Язык : English
Default : Нет
Forced : Нет

Меню
00:00:00.000 : :1. The Two Ways
00:04:10.333 : :2. Grief
00:11:13.339 : :3. The City
00:19:39.970 : :4. Creation
00:36:58.424 : :5. Innocence
00:48:38.457 : :6. Jack is Now 12.
00:55:26.739 : :7. Mother
00:58:50.318 : :8. Father
01:09:28.372 : :9. School
01:10:52.873 : :10. Drowning
01:15:49.711 : :11. Weeds
01:19:50.577 : :12. Be Quiet.
01:25:00.511 : :13. Dad's Away
01:26:32.103 : :14. Robert
01:30:31.425 : :15. Mrs. Kimball
01:37:15.162 : :16. I Trust You.
01:39:43.602 : :17. I Do What I Have
01:41:35.881 : :18. Father Returns
01:47:08.505 : :19. BB Gun
01:53:58.039 : :20. They're Closing the Plant.
01:58:13.210 : :21. Moving Away
02:00:45.112 : :22. Eternity
02:11:49.901 : :23. Was it a Dream?
02:13:04.642 : :24. End Credits

Свернуть

Скриншоты

Изображение

Изображение

Изображение

Изображение

Свернуть
Не в сети
Профиль  
 Добавлено: 2013-09-12 22:56 (спустя 3 месяца 3 дня)
Аватара пользователя
Стаж: 7 лет 2 месяца
Возраст: 30
Сообщений: 27
Уезжаю 16-го. Пожалуйста, не уходите с раздачи. :bra_vo:
Не в сети
Профиль  
Начать новую темуОтветить на тему  [ Сообщений: 2 ] 
Вы не можете начинать темы
Вы не можете отвечать на сообщения
Вы не можете редактировать свои сообщения
Вы не можете удалять свои сообщения