Правила форума

  • В этом разделе создание новых тем Запрещено.
  • Для создания новых тем пользуйтесь Корневым разделом DVD и HD фильмы.
Начать новую темуОтветить на тему  [ Сообщений: 3 ] 
Торрент файл
Размер: 13.78 GB • Зарегистрирован: 2 года 4 месяца • Статус: Проверено
Скачан: 179 раз • Желающих скачать: 0 • Поблагодарили: 67 раз
 Раздают: 2  |  0 KB/s  ]   Качают: 0  |  0 KB/s  ] 
Сообщения
 Добавлено: 2014-07-18 03:05
Аватара пользователя
Стаж: 9 лет 1 месяц
Сообщений: 8018
Спасибок: 122267
Лайков: 1194
Другая женщина / The Other Woman

«Дружба 'против' - тоже дружба»

Изображение


Год выпуска: 2014
Страна: Изображение США
Жанр: мелодрама, комедия
Продолжительность: 01:49:07
Субтитры: Английские
Перевод: Профессиональный (полное дублирование) [Лицензия]


Режиссер: Ник Кассаветис
Сценарий: Мелисса Стэк
Продюсер: Джули Силверман, Магай Дж.Б. Коэн, Дональд Дж. Ли мл
Оператор: Робер Фресс
Композитор: Аарон Зигман

В ролях: Кэмерон Диаз, Лесли Манн, Кейт Аптон, Николай Костер-Валдау, Дон Джонсон, Тейлор Кинни, Ники Минаж, Дэвид Торнтон, Виктор Круз, Оливия Калпо

Описание: Любовная связь с женатым мужчиной — это, конечно, не лучший вариант, но вполне допустимый. Гораздо хуже, если у него помимо тебя ещё несколько любовниц. Будучи не в силах смириться с таким положением дел, обманутая женщина жаждет крови и вынашивает план мести. Ради достижения своей цели она объединяется с женой изменника, и этот союз униженных и оскорблённых оказывается для казановы пострашнее атомной войны.

Изображение Изображение

Раздача группы: Изображение

Качество: BDRip (1080p)
Формат: Matroska
Видео: MPEG-4 AVC, 16.2 Мбит/с, 1920x800
Аудио №1: Русский (AC3, 48,0 КГц, 6 ch, 384 Кбит/c)
Аудио №2: Английский (DTS, 48,0 КГц, 6 ch, 1510 Кбит/c)

MediaInfo
Общее
Уникальный идентификатор : 185983539123095406300328434025663614443 (0x8BEB2070762E0BB488F5A2F5C9C4CDEB)
Полное имя : C:\Фильмы\The.Other.Woman.2014.1080p.x264.Rus.Eng-HDWinG.mkv
Формат : Matroska
Версия формата : Version 4 / Version 2
Размер файла : 13,8 Гбайт
Продолжительность : 1 ч. 49 м.
Общий поток : 18,1 Мбит/сек
Дата кодирования : UTC 2014-07-17 20:33:38
Программа кодирования : mkvmerge v6.5.0 ('Isn't she lovely') built on Oct 20 2013 12:50:05
Библиотека кодирования : libebml v1.3.0 + libmatroska v1.4.1

Видео
Идентификатор : 1
Формат : AVC
Формат/Информация : Advanced Video Codec
Профиль формата : High@L4.1
Параметр CABAC формата : Да
Параметр ReFrames формата : 5 кадров
Идентификатор кодека : V_MPEG4/ISO/AVC
Продолжительность : 1 ч. 49 м.
Битрейт : 16,2 Мбит/сек
Ширина : 1920 пикселей
Высота : 800 пикселей
Соотношение сторон : 2,40:1
Режим частоты кадров : Постоянный
Частота кадров : 23,976 кадра/сек
Цветовое пространство : YUV
Субдискретизация насыщенности : 4:2:0
Битовая глубина : 8 бит
Тип развёртки : Прогрессивная
Бит/(Пиксели*Кадры) : 0.440
Размер потока : 12,1 Гбайт (88%)
Библиотека кодирования : x264 core 142 r2431+42 c69a006 tMod [8-bit@4:2:0 X86_64]
Настройки программы : cabac=1 / ref=5 / deblock=1:-3:-3 / analyse=0x3:0x113 / me=umh / subme=11 / psy=1 / fade_compensate=0.00 / psy_rd=1.10:0.05 / mixed_ref=1 / me_range=32 / chroma_me=1 / trellis=2 / 8x8dct=1 / cqm=0 / deadzone=21,11 / fast_pskip=0 / chroma_qp_offset=-3 / threads=18 / lookahead_threads=3 / sliced_threads=0 / nr=0 / decimate=0 / interlaced=0 / bluray_compat=0 / constrained_intra=0 / fgo=0 / bframes=8 / b_pyramid=2 / b_adapt=2 / b_bias=0 / direct=3 / weightb=1 / open_gop=0 / weightp=2 / keyint=240 / keyint_min=24 / scenecut=40 / intra_refresh=0 / rc_lookahead=40 / rc=2pass / mbtree=0 / bitrate=16200 / ratetol=1.0 / qcomp=0.70 / qpmin=0:0:0 / qpmax=69:69:69 / qpstep=4 / cplxblur=20.0 / qblur=0.5 / vbv_maxrate=50000 / vbv_bufsize=40000 / nal_hrd=none / filler=0 / ip_ratio=1.30 / pb_ratio=1.20 / aq=4:0.80 / aq-sensitivity=10.00 / aq-factor=1.00:1.00:1.00 / aq2=0 / aq3=0
Язык : English
Default : Да
Forced : Нет

Аудио #1
Идентификатор : 2
Формат : AC-3
Формат/Информация : Audio Coding 3
Расширение режима : CM (complete main)
Параметр Endianness формата : Big
Идентификатор кодека : A_AC3
Продолжительность : 1 ч. 49 м.
Вид битрейта : Постоянный
Битрейт : 384 Кбит/сек
Каналы : 6 каналов
Расположение каналов : Front: L C R, Side: L R, LFE
Частота : 48,0 КГц
Битовая глубина : 16 бит
Метод сжатия : С потерями
Размер потока : 300 Мбайт (2%)
Язык : Russian
Default : Да
Forced : Нет

Аудио #2
Идентификатор : 3
Формат : DTS
Формат/Информация : Digital Theater Systems
Режим : 16
Параметр Endianness формата : Big
Идентификатор кодека : A_DTS
Продолжительность : 1 ч. 49 м.
Вид битрейта : Постоянный
Битрейт : 1509 Кбит/сек
Каналы : 6 каналов
Расположение каналов : Front: L C R, Side: L R, LFE
Частота : 48,0 КГц
Битовая глубина : 24 бит
Метод сжатия : С потерями
Размер потока : 1,15 Гбайт (8%)
Язык : English
Default : Нет
Forced : Нет

Текст
Идентификатор : 4
Формат : PGS
Режим смешивания : zlib
Идентификатор кодека : S_HDMV/PGS
Идентификатор кодека/Информация : The same subtitle format used on BDs/HD-DVDs
Язык : English
Default : Да
Forced : Нет
Свернуть
Знаете ли вы, что...
В одной из сцен муж Кэти разговаривает с любовницей по выключенному телефону.
Свернуть
Скриншоты
Изображение
Изображение
Изображение
Изображение
Свернуть
Не в сети
Профиль  
 Добавлено: 2014-07-27 14:42 (спустя 9 дней)
Стаж: 3 года 10 месяцев
Сообщений: 187
Лайков: 61
Отличный фильм. Давно я так не смеялся. Советую к просмотру. Ради этих трёх красоток уже стоит его смотреть.
Не в сети
Профиль  
 Добавлено: 2014-08-20 07:30 (спустя 23 дня)
Аватара пользователя
Стаж: 8 лет 7 месяцев
Сообщений: 55
Спасибок: 100
Лайков: 2
Да, фильм прикольный. Но мужик в конце сливается очень уж наигранно.
Не в сети
Профиль  
Начать новую темуОтветить на тему  [ Сообщений: 3 ] 
Вы не можете начинать темы
Вы не можете отвечать на сообщения
Вы не можете редактировать свои сообщения
Вы не можете удалять свои сообщения