Правила форума

  • В этом разделе создание новых тем Запрещено.
  • Для создания новых тем пользуйтесь Корневым разделом DVD и HD фильмы.
Начать новую темуОтветить на тему  [ Сообщений: 6 ] 
Торрент файл
Размер: 8.34 GB • Зарегистрирован: 4 года 7 месяцев • Статус: Проверено
Скачан: 133 раза • Желающих скачать: 0 • Поблагодарили: 19 раз
 Раздают: 0  |  0 KB/s  ]   Качают: 0  |  0 KB/s  ] 
 Полного источника не было 3 года 
Сообщения
 Добавлено: 2012-05-02 23:49
Top-releaser
Аватара пользователя
Стаж: 7 лет 3 месяца
Возраст: 25
Сообщений: 1036
Спасибок: 2694
Лайков: 9
Другая Земля
Another Earth



Изображение


Год выхода: 2011
Страна: США

Жанр: фантастика, драма, ...
Продолжительность: 01:32:25
Перевод: Профессиональное (многоголосое) [лицензия]

Режиссер: Майк Кэхилл
Сценарий: Майк Кэхилл, Брит Марлинг
Продюсер: Майк Кэхилл, Хантер Грэй, Брит Марлинг, ...
Оператор: Майк Кэхилл
Композитор: Fall On Your Sword

В ролях: Уильям Мапотер, Брит Марлинг, Мэттью-Ли Эрльбах, Мегган Леннон, Брюс Колбер, Пол С. Мези, Ана Валле, Джеффри Голденберг

Описание: Научно-фантастическая драма о трагическом пересечении жизней студентки и композитора в ночь открытия учёными идентичной Земле планеты в Солнечной системе.

Изображение

Изображение

Cборы в США: $1 321 194
Cборы в мире: + $455 741 = $1 776 935

Качество BDRip 1080p R5
Формат: Mkv

Видео: MPEG4 Video (H264) 1920x1036 23.98fps 10.8 Mbps
Аудио 1: Dolby AC3 48000Hz 6ch 640 Kbps
Аудио 2: Dts 48000Hz 6ch 1 510 Kbps
Subtitle: Utf-8

Изображение

MediaInfo
General
Unique ID : 170298687605804975618026013440589305541 (0x801E558DCD7A763396430986C47E16C5)
Complete name : I:\Download\Drugaya.Zemlya.DVD_RG(1080p).mkv
Format : Matroska
Format version : Version 2
File size : 8.34 GiB
Duration : 1h 32mn
Overall bit rate : 12.9 Mbps
Movie name : Drugaya.Zemlya.2011.P.BDRip.1080p.[uniongang.tv] by sstonecold
Encoded date : UTC 2012-05-02 14:37:45
Writing application : mkvmerge v5.2.0 ('I can't explain') built on Dec 18 2011 18:12:03
Writing library : libebml v1.2.3 + libmatroska v1.3.0

Video
ID : 1
Format : AVC
Format/Info : Advanced Video Codec
Format profile : High@L4.1
Format settings, CABAC : Yes
Format settings, ReFrames : 4 frames
Codec ID : V_MPEG4/ISO/AVC
Duration : 1h 32mn
Bit rate : 10.8 Mbps
Width : 1 920 pixels
Height : 1 036 pixels
Display aspect ratio : 1.853
Frame rate : 23.976 fps
Color space : YUV
Chroma subsampling : 4:2:0
Bit depth : 8 bits
Scan type : Progressive
Bits/(Pixel*Frame) : 0.226
Stream size : 6.79 GiB (81%)
Title : Drugaya.Zemlya.2011.P.BDRip.1080p.[uniongang.tv] by sstonecold
Writing library : x264 core 116 r2074 2641b9e
Encoding settings : cabac=1 / ref=4 / deblock=1:-3:-3 / analyse=0x3:0x113 / me=umh / subme=11 / psy=1 / psy_rd=1.10:0.15 / mixed_ref=1 / me_range=32 / chroma_me=1 / trellis=2 / 8x8dct=1 / cqm=2 / deadzone=21,11 / fast_pskip=0 / chroma_qp_offset=-2 / threads=12 / sliced_threads=0 / nr=0 / decimate=1 / interlaced=0 / bluray_compat=0 / constrained_intra=0 / bframes=6 / b_pyramid=2 / b_adapt=2 / b_bias=0 / direct=3 / weightb=1 / open_gop=0 / weightp=2 / keyint=250 / keyint_min=23 / scenecut=40 / intra_refresh=0 / rc_lookahead=60 / rc=2pass / mbtree=1 / bitrate=10766 / ratetol=1.0 / qcomp=0.60 / qpmin=1 / qpmax=63 / qpstep=4 / cplxblur=20.0 / qblur=0.5 / vbv_maxrate=40000 / vbv_bufsize=40000 / nal_hrd=none / ip_ratio=1.40 / aq=1:1.00
Language : English
Default : Yes
Forced : No

Audio #1
ID : 2
Format : AC-3
Format/Info : Audio Coding 3
Mode extension : CM (complete main)
Codec ID : A_AC3
Duration : 1h 32mn
Bit rate mode : Constant
Bit rate : 640 Kbps
Channel(s) : 6 channels
Channel positions : Front: L C R, Side: L R, LFE
Sampling rate : 48.0 KHz
Bit depth : 16 bits
Compression mode : Lossy
Stream size : 423 MiB (5%)
Language : Russian
Default : Yes
Forced : No

Audio #2
ID : 3
Format : DTS
Format/Info : Digital Theater Systems
Codec ID : A_DTS
Duration : 1h 32mn
Bit rate mode : Constant
Bit rate : 1 510 Kbps
Channel(s) : 6 channels
Channel positions : Front: L C R, Side: L R, LFE
Sampling rate : 48.0 KHz
Bit depth : 24 bits
Compression mode : Lossy
Stream size : 998 MiB (12%)
Language : English
Default : No
Forced : No

Text #1
ID : 4
Format : UTF-8
Codec ID : S_TEXT/UTF8
Codec ID/Info : UTF-8 Plain Text
Title : Forced
Language : Russian
Default : Yes
Forced : No

Text #2
ID : 5
Format : UTF-8
Codec ID : S_TEXT/UTF8
Codec ID/Info : UTF-8 Plain Text
Language : Russian
Default : No
Forced : No

Text #3
ID : 6
Format : UTF-8
Codec ID : S_TEXT/UTF8
Codec ID/Info : UTF-8 Plain Text
Language : Ukrainian
Default : No
Forced : No

Text #4
ID : 7
Format : UTF-8
Codec ID : S_TEXT/UTF8
Codec ID/Info : UTF-8 Plain Text
Language : English
Default : No
Forced : No


Свернуть
Скриншоты

Изображение
Изображение
Изображение
Изображение
Изображение

Свернуть
Не в сети
Профиль  
 Добавлено: 2012-05-03 08:16 (спустя 8 часов)
Стаж: 5 лет 10 месяцев
Сообщений: 54
Лайков: 2
тухляк видимо
Не в сети
Профиль  
 Добавлено: 2012-07-01 22:32 (спустя 1 месяц 29 дней)
Аватара пользователя
Стаж: 8 лет 3 месяца
Сообщений: 30
Спасибок: 34
трейлер ок
Не в сети
Профиль  
 Добавлено: 2012-07-12 00:01 (спустя 10 дней)
Аватара пользователя
Стаж: 8 лет 7 месяцев
Возраст: 44
Сообщений: 289
Спасибок: 149
Лайков: 4
Кто же такое на золото ставит?!
А! Релизер - он же модератор...
Не в сети
Профиль  
 Добавлено: 2012-07-23 23:14 (спустя 11 дней)
Аватара пользователя
Стаж: 5 лет 10 месяцев
Возраст: 32
Сообщений: 50
Спасибок: 3
ну и х....ь
_________________
Изображение
Изображение
Не в сети
Профиль  
 Добавлено: 2012-10-29 19:32 (спустя 3 месяца 5 дней)
Аватара пользователя
Стаж: 8 лет 7 месяцев
Сообщений: 73
Лайков: 1
Спасибо тыкнул. Нужна скорость.. :co_ol:
Не в сети
Профиль  
Начать новую темуОтветить на тему  [ Сообщений: 6 ] 
Вы не можете начинать темы
Вы не можете отвечать на сообщения
Вы не можете редактировать свои сообщения
Вы не можете удалять свои сообщения