Правила форума

  • В этом разделе создание новых тем Запрещено.
  • Для создания новых тем пользуйтесь Корневым разделом DVD и HD фильмы.
Начать новую темуОтветить на тему  [ Сообщений: 6 ] 
Торрент файл
Размер: 6.14 GB • Зарегистрирован: 4 года 7 месяцев • Статус: Проверено
Скачан: 485 раз • Желающих скачать: 0 • Поблагодарили: 71 раз
 Раздают: 0  |  0 KB/s  ]   Качают: 0  |  0 KB/s  ] 
 Полного источника не было 14 дней 
Сообщения
 Добавлено: 2012-04-18 13:19
DVD Release Group
Аватара пользователя
Стаж: 7 лет 1 месяц
Сообщений: 3563
Спасибок: 247494
Лайков: 1020
Другой мир 4: Пробуждение

Underworld: Awakening

«Месть проснулась»


Изображение


Год выпуска: 2012
Страна: США
Жанр: Ужасы, фэнтези, боевик
Продолжительность: 01:28:34
Перевод: Профессиональный (полное дублирование)
Субтитры: Russian (Blu-ray CEE), Russian (Commentary), English (Forced), English, English (Commentary)
В ролях: Кейт Бекинсейл, Стивен Ри, Майкл Или, Тео Джеймс, Индия Айли, Чарльз Дэнс, Сандрин Холт, Кристен Холден-Рид, Джейкоб Блэр, Адам Рейд
Описание: Через 12 лет в состоянии, близком к коматозному, Селин узнает о существовании родной дочери Евы — гибрида вампира и ликана. И Селин необходимо помешать БиоКом создать суперликанов, которые убьют их всех
Кинопоиск: 6.28 (12843)
IMDb: 6.6 (28905)
Качество: BDRip 10800p
Формат: MKV
Видео кодек: H.264
Аудио кодек: AC3, DTS
Видео: 1920x800 23.98fps 6747kbps
Аудио:
Аудио Rus: AC3 48kHz 6ch 640kbps
Аудио Eng: DTS 48kHz 6ch 1536kbps
Аудио Ukr: AC3 48kHz 6ch 640kbps
Аудио Eng: AC3 48kHz 2ch 192kbps |Commentary|
"MediaInfo"
Формат : Matroska
Версия формата : Version 2
Размер файла : 6,14 Гбайт
Продолжительность : 1 ч. 28 м.
Общий поток : 9927 Кбит/сек
Название фильма : Underworld: Awakening (2012) - Release for HDCLUB
Дата кодирования : UTC 2012-04-17 20:46:36
Программа кодирования : mkvmerge v3.4.0 ('Rapunzel') built on May 15 2010 09:38:20
Библиотека кодирования : libebml v0.8.0 + libmatroska v0.9.0

Видео
Идентификатор : 1
Формат : AVC
Формат/Информация : Advanced Video Codec
Профиль формата : High@L4.1
Параметр CABAC формата : Да
Параметр ReFrames формата : 4 кадра
Идентификатор кодека : V_MPEG4/ISO/AVC
Продолжительность : 1 ч. 28 м.
Битрейт : 6747 Кбит/сек
Ширина : 1920 пикселей
Высота : 800 пикселей
Соотношение сторон : 2,40:1
Частота кадров : 23,976 кадра/сек
Цветовое пространство : YUV
Субдискретизация насыщенности : 4:2:0
Битовая глубина : 8 бит
Тип развёртки : Прогрессивная
Бит/(Пиксели*Кадры) : 0.183
Размер потока : 4,17 Гбайт (68%)
Библиотека кодирования : x264 core 122 r2184 5c85e0a
Настройки программы : cabac=1 / ref=4 / deblock=1:-3:-3 / analyse=0x3:0x113 / me=umh / subme=10 / psy=1 / psy_rd=1.00:0.00 / mixed_ref=1 / me_range=32 / chroma_me=1 / trellis=2 / 8x8dct=1 / cqm=0 / deadzone=21,11 / fast_pskip=0 / chroma_qp_offset=-2 / threads=18 / sliced_threads=0 / nr=0 / decimate=0 / interlaced=0 / bluray_compat=0 / constrained_intra=0 / bframes=8 / b_pyramid=2 / b_adapt=2 / b_bias=0 / direct=3 / weightb=1 / open_gop=0 / weightp=2 / keyint=240 / keyint_min=22 / scenecut=40 / intra_refresh=0 / rc_lookahead=60 / rc=crf / mbtree=0 / crf=17.0 / qcomp=0.60 / qpmin=0 / qpmax=69 / qpstep=4 / vbv_maxrate=50000 / vbv_bufsize=62500 / crf_max=0.0 / nal_hrd=none / ip_ratio=1.40 / pb_ratio=1.30 / aq=2:0.80
Язык : English
Коэффициенты матрицы : BT.709-5, BT.1361, IEC 61966-2-4 709, SMPTE RP177

Аудио #1
Идентификатор : 2
Формат : AC-3
Формат/Информация : Audio Coding 3
Расширение режима : CM (complete main)
Идентификатор кодека : A_AC3
Продолжительность : 1 ч. 28 м.
Вид битрейта : Постоянный
Битрейт : 640 Кбит/сек
Каналы : 6 каналов
Расположение каналов : Front: L C R, Side: L R, LFE
Частота : 48,0 КГц
Битовая глубина : 16 бит
Метод сжатия : С потерями
Размер потока : 405 Мбайт (6%)
Заголовок : AC3 5.1 640 kbps DUB, Blu-ray CEE
Язык : Russian

Аудио #2
Идентификатор : 3
Формат : AC-3
Формат/Информация : Audio Coding 3
Расширение режима : CM (complete main)
Идентификатор кодека : A_AC3
Продолжительность : 1 ч. 28 м.
Вид битрейта : Постоянный
Битрейт : 640 Кбит/сек
Каналы : 6 каналов
Расположение каналов : Front: L C R, Side: L R, LFE
Частота : 48,0 КГц
Битовая глубина : 16 бит
Метод сжатия : С потерями
Размер потока : 405 Мбайт (6%)
Заголовок : AC3 5.1 640 kbps DUB, Blu-ray CEE
Язык : Ukrainian

Аудио #3
Идентификатор : 4
Формат : DTS
Формат/Информация : Digital Theater Systems
Идентификатор кодека : A_DTS
Продолжительность : 1 ч. 28 м.
Вид битрейта : Постоянный
Битрейт : 1510 Кбит/сек
Каналы : 6 каналов
Расположение каналов : Front: L C R, Side: L R, LFE
Частота : 48,0 КГц
Битовая глубина : 16 бит
Метод сжатия : С потерями
Размер потока : 957 Мбайт (15%)
Заголовок : DTS 5.1 1536 kbps
Язык : English

Аудио #4
Идентификатор : 5
Формат : AC-3
Формат/Информация : Audio Coding 3
Профиль формата : Dolby Digital
Расширение режима : CM (complete main)
Идентификатор кодека : A_AC3
Продолжительность : 1 ч. 28 м.
Вид битрейта : Постоянный
Битрейт : 192 Кбит/сек
Каналы : 2 канала
Расположение каналов : Front: L R
Частота : 48,0 КГц
Битовая глубина : 16 бит
Метод сжатия : С потерями
Размер потока : 122 Мбайт (2%)
Заголовок : AC3 2.0 192 kbps Commentary with the Filmmakers
Язык : English

Текст #1
Идентификатор : 6
Формат : UTF-8
Идентификатор кодека : S_TEXT/UTF8
Идентификатор кодека/Информация : UTF-8 Plain Text
Язык : Russian

Текст #2
Идентификатор : 7
Формат : UTF-8
Идентификатор кодека : S_TEXT/UTF8
Идентификатор кодека/Информация : UTF-8 Plain Text
Заголовок : Commentary with the Filmmakers
Язык : Russian

Текст #3
Идентификатор : 8
Формат : UTF-8
Идентификатор кодека : S_TEXT/UTF8
Идентификатор кодека/Информация : UTF-8 Plain Text
Заголовок : Forced
Язык : English

Текст #4
Идентификатор : 9
Формат : UTF-8
Идентификатор кодека : S_TEXT/UTF8
Идентификатор кодека/Информация : UTF-8 Plain Text
Язык : English

Текст #5
Идентификатор : 10
Формат : UTF-8
Идентификатор кодека : S_TEXT/UTF8
Идентификатор кодека/Информация : UTF-8 Plain Text
Заголовок : Commentary with the Filmmakers
Язык : English

Меню
00:00:00.000 : en:00:00:00.000
00:04:26.057 : en:00:04:26.057
00:07:45.340 : en:00:07:45.340
00:16:20.188 : en:00:16:20.188
00:21:11.812 : en:00:21:11.812
00:24:49.988 : en:00:24:49.988
00:30:29.828 : en:00:30:29.828
00:35:31.755 : en:00:35:31.755
00:40:04.944 : en:00:40:04.944
00:45:23.930 : en:00:45:23.930
00:52:30.731 : en:00:52:30.731
00:57:21.563 : en:00:57:21.563
01:02:53.937 : en:01:02:53.937
01:07:43.726 : en:01:07:43.726
01:12:18.501 : en:01:12:18.501
01:16:41.430 : en:01:16:41.430
Свернуть

"Скриншоты"
Изображение
Изображение
Изображение
Свернуть

Раздача группы:
Изображение
Не в сети
Профиль  
 Добавлено: 2012-04-24 19:08 (спустя 6 дней)
Console V.I.P.
Аватара пользователя
Стаж: 9 лет
Сообщений: 1456
Спасибок: 690
Лайков: 12
Как оно? Также ужасно как и предыдущее или хуже?
_________________
МАСТЕР ПО ИГРОВЫМ КОНСОЛЯМ
ПРОДАЖА И МОДЕРНИЗАЦИЯ ИГРОВЫХ КОНСОЛЕЙ

УСЛУГИ И КОНТАКТЫ (нажать чтобы посмотреть)
icq: 378004868 тел: 89049149337
Не в сети
Профиль  
 Добавлено: 2012-04-26 18:39 (спустя 1 день 23 часа)
Стаж: 7 лет 5 месяцев
Сообщений: 103
Лайков: 4
, оно не очень, имхо, 1ая и 2ая часть лучше, причем намного, а остальные это известный сценарий и не только...
Не в сети
Профиль  
 Добавлено: 2012-04-29 00:38 (спустя 2 дня 5 часов)
Console V.I.P.
Аватара пользователя
Стаж: 9 лет
Сообщений: 1456
Спасибок: 690
Лайков: 12
Очень даже неплохой фильм, как оказалось, на уровне первых двух, я бы сказал - даже повзрослее, меньше пафоса, меньше наивно-тупых моментов и диалогов, сплошное действие, спецэффекты и акробатика поинтереснее и пореалистичнее, чем в первых двух будут, сюжет правда минималистичен, но менее интересным фильм от этого не становится, сюжет немного вырван из контекста, но тоже ближе к реализму.
Снят хорошо и звук хороший.
Нормально, ничего общего с третьей убогой частью нет.
_________________
МАСТЕР ПО ИГРОВЫМ КОНСОЛЯМ
ПРОДАЖА И МОДЕРНИЗАЦИЯ ИГРОВЫХ КОНСОЛЕЙ

УСЛУГИ И КОНТАКТЫ (нажать чтобы посмотреть)
icq: 378004868 тел: 89049149337
Не в сети
Профиль  
 Добавлено: 2012-05-02 14:54 (спустя 3 дня)
Стаж: 8 лет
Сообщений: 27
Спасибок: 26
Лайков: 1
очень нудный фильм, сюжета нет, через полчаса стал мотать. Первые две части были смотримые.
Не в сети
Профиль  
 Добавлено: 2012-07-15 22:41 (спустя 2 месяца 13 дней)
Стаж: 6 лет 10 месяцев
Сообщений: 6
скорости бы :(
Не в сети
Профиль  
Начать новую темуОтветить на тему  [ Сообщений: 6 ] 
Вы не можете начинать темы
Вы не можете отвечать на сообщения
Вы не можете редактировать свои сообщения
Вы не можете удалять свои сообщения