Правила форума

  • В этом разделе создание новых тем Запрещено.
  • Для создания новых тем пользуйтесь Корневым разделом DVD и HD фильмы.
Начать новую темуОтветить на тему  [ Сообщений: 2 ] 
Торрент файл
Размер: 24.81 GB • Зарегистрирован: 4 года • Статус: Проверено
Скачан: 49 раз • Желающих скачать: 0 • Поблагодарили: 18 раз
 Раздают: 0  |  0 KB/s  ]   Качают: 0  |  0 KB/s  ] 
 Полного источника не было 2 года 1 месяц 
Сообщения
 Добавлено: 2012-11-07 17:22
Руководитель релиз-группы
Аватара пользователя
Стаж: 7 лет 4 месяца
Возраст: 31
Сообщений: 3407
Спасибок: 46729
Лайков: 5
Изображение

Дружинники
The Watch


Год выпуска: 2012
Страна: США
Слоган: «Крыша нужна?»
Жанр: фантастика, комедия
Продолжительность: 01:41:57
Перевод: Профессиональный (полное дублирование) [лицензия]
Режиссер: Акива Шаффер
Сценарий: Джаред Штерн, Сет Роген, Ивэн Голдберг
Продюсер: Шон Леви, Том МакНалти, Блондел Айду, Моника Левинсон, Билли Розенберг
Оператор: Бэрри Петерсон
Композитор: Кристоф Бек
В ролях: Бен Стиллер, Винс Вон, Джона Хилл, Ричард Айоаде, Розмари ДеУитт, Уилл Форте, Эрин Мориарти, Николас Браун, Р. Ли Эрми, Билли Крудап, Мэл Родригез, Даг Джонс
Бюджет: $68 000 000
Сборы в США: $35 353 000
Сборы в России: $3 258 248
Сборы в мире: $65 860 509
Описание: Сюжет фильма разворачивается вокруг дружной компании соседей, организовавших дружину ради патрулирования окрестностей и поддержания порядка. В действительности благие намерения были лишь поводом хотя бы изредка сбегать от семьи, дабы покутить вечерком в сугубо мужской компании. Безоблачная жизнь заканчивается в тот момент, когда соседский дозор случайно узнаёт о заговоре с целью уничтожить мир.
Изображение
MPAA: Изображение
Мировая премьера: 27 июля 2012
Релиз на DVD: 6 декабря 2012, «Двадцатый Век Фокс СНГ»
Релиз на Blu-ray: 6 декабря 2012, «Двадцатый Век Фокс СНГ»
Раздача группы: Изображение
Качество: BD-Remux, 1080p
Формат: Matroska
Видео: MPEG-4 AVC, 29.9 Мбит/с, 1920x1080, 23.976 кадр/с
Аудио №1: DTS; 768 Kbps; CBR; 6 ch; 24 bit Russian
Аудио №2: AC3; 448 Kbps; CBR; 6 ch Ukrainian
Аудио №3: DTS-HD МА; 3806 Kbps; CBR; 6 ch; 24 bit English
Субтитры: русские, английские, украинские
Изображение
mediainfo
Формат : Matroska
Версия формата : Version 2
Размер файла : 24,8 Гбайт
Продолжительность : 1 ч. 41 м.
Режим общего битрейта : Переменный
Общий поток : 34,8 Мбит/сек
Название фильма : --SCHUMAHER--
Дата кодирования : UTC 2012-11-06 14:25:45
Программа кодирования : mkvmerge v5.8.0 ('No Sleep / Pillow') built on Sep 2 2012 15:37:04
Библиотека кодирования : libebml v1.2.3 + libmatroska v1.3.0

Видео
Идентификатор : 1
Формат : AVC
Формат/Информация : Advanced Video Codec
Профиль формата : High@L4.1
Параметр CABAC формата : Да
Параметр ReFrames формата : 4 кадра
Идентификатор кодека : V_MPEG4/ISO/AVC
Продолжительность : 1 ч. 41 м.
Вид битрейта : Переменный
Битрейт : 31,0 Мбит/сек
Ширина : 1920 пикселей
Высота : 1080 пикселей
Соотношение сторон : 16:9
Частота кадров : 23,976 кадра/сек
Цветовое пространство : YUV
Субдискретизация насыщенности : 4:2:0
Битовая глубина : 8 бит
Тип развёртки : Прогрессивная
Бит/(Пиксели*Кадры) : 0.624
Размер потока : 22,3 Гбайт (90%)
Язык : English

Аудио #1
Идентификатор : 2
Формат : DTS
Формат/Информация : Digital Theater Systems
Идентификатор кодека : A_DTS
Продолжительность : 1 ч. 41 м.
Вид битрейта : Постоянный
Битрейт : 755 Кбит/сек
Каналы : 6 каналов
Расположение каналов : Front: L C R, Side: L R, LFE
Частота : 48,0 КГц
Битовая глубина : 24 бит
Метод сжатия : С потерями
Размер потока : 550 Мбайт (2%)
Язык : Russian

Аудио #2
Идентификатор : 3
Формат : AC-3
Формат/Информация : Audio Coding 3
Расширение режима : CM (complete main)
Идентификатор кодека : A_AC3
Продолжительность : 1 ч. 41 м.
Вид битрейта : Постоянный
Битрейт : 448 Кбит/сек
Каналы : 6 каналов
Расположение каналов : Front: L C R, Side: L R, LFE
Частота : 48,0 КГц
Битовая глубина : 16 бит
Метод сжатия : С потерями
Размер потока : 327 Мбайт (1%)
Язык : Ukrainian

Аудио #3
Идентификатор : 4
Формат : DTS
Формат/Информация : Digital Theater Systems
Профиль формата : MA / Core
Идентификатор кодека : A_DTS
Продолжительность : 1 ч. 41 м.
Вид битрейта : Переменный
Битрейт : 1561 Кбит/сек / 1510 Кбит/сек
Каналы : 6 каналов
Расположение каналов : Front: L C R, Side: L R, LFE
Частота : 48,0 КГц
Битовая глубина : 24 бит
Метод сжатия : Без потерь / Lossy
Язык : English

Текст #1
Идентификатор : 5
Формат : UTF-8
Идентификатор кодека : S_TEXT/UTF8
Идентификатор кодека/Информация : UTF-8 Plain Text
Язык : Russian

Текст #2
Идентификатор : 6
Формат : UTF-8
Идентификатор кодека : S_TEXT/UTF8
Идентификатор кодека/Информация : UTF-8 Plain Text
Язык : Ukrainian

Текст #3
Идентификатор : 7
Формат : UTF-8
Идентификатор кодека : S_TEXT/UTF8
Идентификатор кодека/Информация : UTF-8 Plain Text
Заголовок : Full
Язык : English

Текст #4
Идентификатор : 8
Формат : UTF-8
Идентификатор кодека : S_TEXT/UTF8
Идентификатор кодека/Информация : UTF-8 Plain Text
Заголовок : Full SDH
Язык : English

Текст #5
Идентификатор : 9
Формат : UTF-8
Идентификатор кодека : S_TEXT/UTF8
Идентификатор кодека/Информация : UTF-8 Plain Text
Заголовок : Full SDH Colored
Язык : English

Меню
00:00:00.000 : en:00:00:00.000
00:04:17.257 : en:00:04:17.257
00:07:04.507 : en:00:07:04.507
00:09:58.807 : en:00:09:58.807
00:12:23.660 : en:00:12:23.660
00:18:01.747 : en:00:18:01.747
00:20:08.207 : en:00:20:08.207
00:22:10.538 : en:00:22:10.538
00:24:21.001 : en:00:24:21.001
00:29:13.627 : en:00:29:13.627
00:32:18.061 : en:00:32:18.061
00:33:15.911 : en:00:33:15.911
00:37:53.855 : en:00:37:53.855
00:39:25.238 : en:00:39:25.238
00:42:14.532 : en:00:42:14.532
00:47:40.149 : en:00:47:40.149
00:51:35.259 : en:00:51:35.259
00:55:15.020 : en:00:55:15.020
00:57:11.637 : en:00:57:11.637
00:59:47.000 : en:00:59:47.000
01:01:12.919 : en:01:01:12.919
01:05:16.663 : en:01:05:16.663
01:06:48.379 : en:01:06:48.379
01:09:24.160 : en:01:09:24.160
01:12:33.558 : en:01:12:33.558
01:14:26.045 : en:01:14:26.045
01:18:41.675 : en:01:18:41.675
01:20:22.026 : en:01:20:22.026
01:22:05.879 : en:01:22:05.879
01:25:33.295 : en:01:25:33.295
01:28:48.573 : en:01:28:48.573
01:35:36.814 : en:01:35:36.814

Свернуть
"Знаете ли Вы, что..."
  • Первоначально Дэвид Добкин собирался заниматься режиссурой с Уиллом Ферреллом в главной роли, но из-за ссоры этот дуэт распался летом 2009 года.
  • Крис Такер рассматривался на роль Джамаркуса.
  • Первоначально фильм был назван «Neighborhood Watch» (Соседский дозор), но название было изменено в связи с событиями связанными с убийством Трэйвона Мартина (он был убит патрульным «соседского дозора» Джорджем Циммерманом).
Свернуть
Скриншоты

Изображение

Изображение

Изображение

Изображение
Свернуть
Не в сети
Профиль  
 Добавлено: 2012-11-07 20:11 (спустя 2 часа 48 минут)
Модератор
Аватара пользователя
Стаж: 6 лет 10 месяцев
Возраст: 33
Сообщений: 5908
Спасибок: 61258
Лайков: 3540
:co_ol:
_________________
ИзображениеИзображение Изображение
Изображение
Не в сети
Профиль  
Начать новую темуОтветить на тему  [ Сообщений: 2 ] 
Вы не можете начинать темы
Вы не можете отвечать на сообщения
Вы не можете редактировать свои сообщения
Вы не можете удалять свои сообщения