Правила форума

  • В этом разделе создание новых тем Запрещено.
  • Для создания новых тем пользуйтесь Корневым разделом DVD и HD фильмы.
Начать новую темуОтветить на тему  [ 1 сообщение ] 
Торрент файл
Размер: 4.37 GB • Зарегистрирован: 4 года 3 месяца • Статус: Проверено
Скачан: 56 раз • Желающих скачать: 0 • Поблагодарили: 6 раз
 Раздают: 0  |  0 KB/s  ]   Качают: 0  |  0 KB/s  ] 
 Полного источника не было 6 часов 
Сообщения
 Добавлено: 2012-08-24 21:08
Аватара пользователя
Стаж: 8 лет 1 месяц
Возраст: 27
Сообщений: 176
Спасибок: 968
Лайков: 1
Думай, как мужчина / Think Like a Man

Изображение


Год выпуска: 2012
Страна: США Изображение (Rainforest Films, Screen Gems)
Слоган: «Let the mind games begin.»
Жанр: мелодрама, комедия
Продолжительность: 02:02:03
Перевод: Профессиональный (многоголосый) [Лицензия]

Режиссёр: Тим Стори
Сценарист: Кейт Мерримен, Дэвид А. Ньюман, Стив Харви
Продюсер: Уильям Пэкер, Гленн С. Гейнор, Роб Харди
Оператор: Ларри Блэнфорд
Композитор: Кристофер Леннерц
В ролях: Майкл Или, Джерри Феррара, Мэган Гуд, Реджина Холл, Кевин Харт, Тараджи П. Хенсон, Терренс Дженкинс, Дженифер Льюис, Романи Малко, Гари Оуэн, Гэбриэл Юнион, Венди Уильямс, Ла Ла Васкес, Крис Браун, Шерри Шеперд, Ариэль Кеббел
Описание: Четверо героев страдают от проблем во взаимоотношениях со спутницами жизни, которые вовсю черпают советы из книги Стива Харви «Поступай как женщина, думай как мужчина». Узнав об этом, парни решают отомстить слабому полу тем, что попытаются опровергнуть данные в тексте рекомендации, ведя себя в точности наоборот.
Рейтинг MPAA: Рейтинг PG-13 (Дети до 13 лет допускаются на фильм только с родителями)
Мировая премьера: 23 марта 2012
Бюджет: $12 000 000
Кассовые сборы: $95 326 341
Изображение 7.201 (1 185)
Изображение 5.6 (6,676)

Формат: .mkv
Качество: BDRip [1080p]
Видео: 1920x800, 4674 Кбит/сек, 23,976 кадр/сек, AVC, x264, 2,40:1, 0.127 Бит/[Пиксели*Кадры], 2pass
Аудио: AC-3, 448 Кбит/сек, 6 канала(ов), 48,0 КГц
Размер: 4,37 ГБ
Изображение
Скриншоты
Изображение
Изображение
Изображение
Изображение
Свернуть
MI
Общее
Уникальный идентификатор : 241523463892010056144220795216392790097 (0xB5B3BA25BA39F097B0D810139E72A051)
Полное имя : E:ЗагрузкиThink.Like.a.Man.2012.x264.BDRip.1080p.MVO.mkv
Формат : Matroska
Версия формата : Version 2
Размер файла : 4,37 Гбайт
Продолжительность : 2 ч. 2 м.
Общий поток : 5123 Кбит/сек
Дата кодирования : UTC 2012-08-23 22:09:37
Программа кодирования : mkvmerge v5.5.0 ('Healer') built on Apr 6 2012 21:43:24
Библиотека кодирования : libebml v1.2.3 + libmatroska v1.3.0

Видео
Идентификатор : 1
Формат : AVC
Формат/Информация : Advanced Video Codec
Профиль формата : High@L4.0
Параметр CABAC формата : Да
Параметр ReFrames формата : 4 кадра
Идентификатор кодека : V_MPEG4/ISO/AVC
Продолжительность : 2 ч. 2 м.
Битрейт : 4674 Кбит/сек
Ширина : 1920 пикселей
Высота : 800 пикселей
Соотношение сторон : 2,40:1
Частота кадров : 23,976 кадра/сек
Цветовое пространство : YUV
Субдискретизация насыщенности : 4:2:0
Битовая глубина : 8 бит
Тип развёртки : Прогрессивная
Бит/(Пиксели*Кадры) : 0.127
Размер потока : 3,90 Гбайт (89%)
Заголовок : Думай, как мужчина
Библиотека кодирования : x264 core 125 r2208 d9d2288
Настройки программы : cabac=1 / ref=3 / deblock=1:0:0 / analyse=0x3:0x133 / me=hex / subme=7 / psy=1 / psy_rd=1.00:0.00 / mixed_ref=1 / me_range=16 / chroma_me=1 / trellis=1 / 8x8dct=1 / cqm=0 / deadzone=21,11 / fast_pskip=0 / chroma_qp_offset=-2 / threads=12 / lookahead_threads=2 / sliced_threads=0 / nr=0 / decimate=1 / interlaced=0 / bluray_compat=0 / constrained_intra=0 / bframes=3 / b_pyramid=2 / b_adapt=1 / b_bias=0 / direct=1 / weightb=1 / open_gop=0 / weightp=2 / keyint=240 / keyint_min=23 / scenecut=40 / intra_refresh=0 / rc_lookahead=40 / rc=2pass / mbtree=1 / bitrate=4674 / ratetol=1.0 / qcomp=0.60 / qpmin=0 / qpmax=69 / qpstep=4 / cplxblur=20.0 / qblur=0.5 / ip_ratio=1.40 / aq=1:1.00
Язык : English
Default : Да
Forced : Нет

Аудио
Идентификатор : 2
Формат : AC-3
Формат/Информация : Audio Coding 3
Расширение режима : CM (complete main)
Идентификатор кодека : A_AC3
Продолжительность : 2 ч. 2 м.
Вид битрейта : Постоянный
Битрейт : 448 Кбит/сек
Каналы : 6 каналов
Расположение каналов : Front: L C R, Side: L R, LFE
Частота : 48,0 КГц
Битовая глубина : 16 бит
Метод сжатия : С потерями
Размер потока : 391 Мбайт (9%)
Заголовок : Профессиональное (многоголосое)
Язык : Russian
Default : Да
Forced : Нет
Свернуть

Изображение

Изображение
Не в сети
Профиль  
Начать новую темуОтветить на тему  [ 1 сообщение ] 
Вы не можете начинать темы
Вы не можете отвечать на сообщения
Вы не можете редактировать свои сообщения
Вы не можете удалять свои сообщения