Правила форума

  • В этом разделе создание новых тем Запрещено.
  • Для создания новых тем пользуйтесь Корневым разделом DVD и HD фильмы.
Начать новую темуОтветить на тему  [ 1 сообщение ] 
Торрент файл
Размер: 14.08 GB • Зарегистрирован: 2 года 11 месяцев • Статус: Проверено
Скачан: 156 раз • Желающих скачать: 0 • Поблагодарили: 64 раза
 Раздают: 1  |  0 KB/s  ]   Качают: 0  |  0 KB/s  ] 
Сообщения
 Добавлено: 2013-12-19 10:57
Аватара пользователя
Стаж: 9 лет 1 месяц
Сообщений: 8047
Спасибок: 122285
Лайков: 1194
Два ствола / 2 Guns

«Карты есть, деньги будут»

Изображение


Год выпуска: 2013
Страна: Изображение США
Жанр: боевик, триллер, драма, комедия, криминал
Продолжительность: 01:49:15
Субтитры: Русские, английские
Перевод: Профессиональный (полное дублирование) [Лицензия] + Профессиональный (многоголосый, закадровый) + Авторский (одноголосый, закадровый) [Ю. Сербин] + Авторский (одноголосый, закадровый) [Л. Володарский]


Режиссер: Бальтасар Кормакур
Сценарий: Блейк Мастерс, Стивен Грант
Продюсер: Эндрю Косби, Рэндолл Эмметт, Джордж Фурла
Оператор: Оливер Вуд
Композитор: Клинтон Шотер

В ролях: Дензел Вашингтон, Марк Уолберг, Пола Пэттон, Билл Пэкстон, Фред Уорд, Джеймс Марсден, Эдвард Джеймс Олмос, Роберт Джон Бёрк, Грег Спролс, Патрик Фишлер

Описание: Это история двух грабителей, которые на самом деле не те, кем кажутся. Один из них — агент из управления по борьбе с наркотиками, а другой — тайный агент разведки ВМС. Сами того не желая, они занимаются расследованием дел друг друга, а также воруют деньги у мафии. Через некоторое время героям придется украсть 50 миллионов долларов у ЦРУ.

Изображение Изображение

Раздача группы: Изображение

Качество: BDRip (1080p)
Формат: Matroska
Видео: MPEG-4 AVC, 10.9 Мбит/с, 1920x800
Аудио №1: Русский (AC3, 48,0 КГц, 6 ch, 640 Кбит/c) Дубляж
Аудио №2: Украинский (AC3, 48,0 КГц, 6 ch, 640 Кбит/c)
Аудио №3: Русский (AC3, 48,0 КГц, 6 ch, 448 Кбит/c) Многоголосый
Аудио №4: Русский (AC3, 48,0 КГц, 6 ch, 640 Кбит/c) Ю. Сербин
Аудио №5: Русский (AC3, 48,0 КГц, 6 ch, 640 Кбит/c) Л. Володарский
Аудио №6: Русский (DTS, 48,0 КГц, 6 ch, 1510 Кбит/c) Ю. Сербин
Аудио №7: Русский (DTS, 48,0 КГц, 6 ch, 1510 Кбит/c) Л. Володарский
Аудио №8: Английский (DTS, 48,0 КГц, 6 ch, 1510 Кбит/c)

MediaInfo
Общее
Уникальный идентификатор : 243011438883560976355627523944805728524 (0xB6D24CFA82089DBD95E9D581C3DE810C)
Полное имя : C:\Фильмы\2.Guns.2013.BluRay.1080p.DTS.x264.[R.G.Daredevil].mkv
Формат : Matroska
Версия формата : Version 2
Размер файла : 14,1 Гбайт
Продолжительность : 1 ч. 49 м.
Общий поток : 18,5 Мбит/сек
Дата кодирования : UTC 2013-12-19 05:06:10
Программа кодирования : mkvmerge v6.3.0 ('You can't stop me!') built on Jun 28 2013 20:09:41
Библиотека кодирования : libebml v1.3.0 + libmatroska v1.4.0

Видео
Идентификатор : 1
Формат : AVC
Формат/Информация : Advanced Video Codec
Профиль формата : High@L4.1
Параметр CABAC формата : Да
Параметр ReFrames формата : 5 кадров
Идентификатор кодека : V_MPEG4/ISO/AVC
Продолжительность : 1 ч. 49 м.
Битрейт : 10,9 Мбит/сек
Ширина : 1920 пикселей
Высота : 800 пикселей
Соотношение сторон : 2,40:1
Режим частоты кадров : Постоянный
Частота кадров : 23,976 кадра/сек
Цветовое пространство : YUV
Субдискретизация насыщенности : 4:2:0
Битовая глубина : 8 бит
Тип развёртки : Прогрессивная
Бит/(Пиксели*Кадры) : 0.297
Размер потока : 8,05 Гбайт (57%)
Заголовок : 2.Guns.2013
Библиотека кодирования : x264 core 138 r2356 a1d3d17
Настройки программы : cabac=1 / ref=5 / deblock=1:-3:-3 / analyse=0x3:0x113 / me=umh / subme=10 / psy=1 / psy_rd=1.00:0.05 / mixed_ref=1 / me_range=32 / chroma_me=1 / trellis=2 / 8x8dct=1 / cqm=0 / deadzone=21,11 / fast_pskip=0 / chroma_qp_offset=-2 / threads=18 / lookahead_threads=1 / sliced_threads=0 / nr=0 / decimate=1 / interlaced=0 / bluray_compat=0 / constrained_intra=0 / bframes=4 / b_pyramid=2 / b_adapt=2 / b_bias=0 / direct=3 / weightb=1 / open_gop=0 / weightp=2 / keyint=250 / keyint_min=23 / scenecut=40 / intra_refresh=0 / rc=2pass / mbtree=0 / bitrate=10943 / ratetol=1.0 / qcomp=0.70 / qpmin=0 / qpmax=69 / qpstep=4 / cplxblur=20.0 / qblur=0.5 / ip_ratio=1.40 / pb_ratio=1.30 / aq=2:1.00
Язык : English
Default : Да
Forced : Нет

Аудио #1
Идентификатор : 2
Формат : AC-3
Формат/Информация : Audio Coding 3
Расширение режима : CM (complete main)
Параметр Endianness формата : Big
Идентификатор кодека : A_AC3
Продолжительность : 1 ч. 49 м.
Вид битрейта : Постоянный
Битрейт : 640 Кбит/сек
Каналы : 6 каналов
Расположение каналов : Front: L C R, Side: L R, LFE
Частота : 48,0 КГц
Битовая глубина : 16 бит
Метод сжатия : С потерями
Размер потока : 500 Мбайт (3%)
Язык : Russian
Default : Да
Forced : Нет

Аудио #2
Идентификатор : 3
Формат : AC-3
Формат/Информация : Audio Coding 3
Расширение режима : CM (complete main)
Параметр Endianness формата : Big
Идентификатор кодека : A_AC3
Продолжительность : 1 ч. 49 м.
Вид битрейта : Постоянный
Битрейт : 640 Кбит/сек
Каналы : 6 каналов
Расположение каналов : Front: L C R, Side: L R, LFE
Частота : 48,0 КГц
Битовая глубина : 16 бит
Метод сжатия : С потерями
Размер потока : 500 Мбайт (3%)
Язык : Ukrainian
Default : Нет
Forced : Нет

Аудио #3
Идентификатор : 4
Формат : AC-3
Формат/Информация : Audio Coding 3
Расширение режима : CM (complete main)
Параметр Endianness формата : Big
Идентификатор кодека : A_AC3
Продолжительность : 1 ч. 49 м.
Вид битрейта : Постоянный
Битрейт : 448 Кбит/сек
Каналы : 6 каналов
Расположение каналов : Front: L C R, Side: L R, LFE
Частота : 48,0 КГц
Битовая глубина : 16 бит
Метод сжатия : С потерями
Размер потока : 350 Мбайт (2%)
Язык : Russian
Default : Нет
Forced : Нет

Аудио #4
Идентификатор : 5
Формат : AC-3
Формат/Информация : Audio Coding 3
Расширение режима : CM (complete main)
Параметр Endianness формата : Big
Идентификатор кодека : A_AC3
Продолжительность : 1 ч. 49 м.
Вид битрейта : Постоянный
Битрейт : 640 Кбит/сек
Каналы : 6 каналов
Расположение каналов : Front: L C R, Side: L R, LFE
Частота : 48,0 КГц
Битовая глубина : 16 бит
Метод сжатия : С потерями
Размер потока : 500 Мбайт (3%)
Заголовок : Serbin
Язык : Russian
Default : Нет
Forced : Нет

Аудио #5
Идентификатор : 6
Формат : AC-3
Формат/Информация : Audio Coding 3
Расширение режима : CM (complete main)
Параметр Endianness формата : Big
Идентификатор кодека : A_AC3
Продолжительность : 1 ч. 49 м.
Вид битрейта : Постоянный
Битрейт : 640 Кбит/сек
Каналы : 6 каналов
Расположение каналов : Front: L C R, Side: L R, LFE
Частота : 48,0 КГц
Битовая глубина : 16 бит
Метод сжатия : С потерями
Размер потока : 500 Мбайт (3%)
Заголовок : Volodarskiy
Язык : Russian
Default : Нет
Forced : Нет

Аудио #6
Идентификатор : 7
Формат : DTS
Формат/Информация : Digital Theater Systems
Режим : 16
Параметр Endianness формата : Big
Идентификатор кодека : A_DTS
Продолжительность : 1 ч. 49 м.
Вид битрейта : Постоянный
Битрейт : 1509 Кбит/сек
Каналы : 6 каналов
Расположение каналов : Front: L C R, Side: L R, LFE
Частота : 48,0 КГц
Битовая глубина : 24 бит
Метод сжатия : С потерями
Размер потока : 1,15 Гбайт (8%)
Заголовок : Serbin
Язык : Russian
Default : Нет
Forced : Нет

Аудио #7
Идентификатор : 8
Формат : DTS
Формат/Информация : Digital Theater Systems
Режим : 16
Параметр Endianness формата : Big
Идентификатор кодека : A_DTS
Продолжительность : 1 ч. 49 м.
Вид битрейта : Постоянный
Битрейт : 1509 Кбит/сек
Каналы : 6 каналов
Расположение каналов : Front: L C R, Side: L R, LFE
Частота : 48,0 КГц
Битовая глубина : 24 бит
Метод сжатия : С потерями
Размер потока : 1,15 Гбайт (8%)
Заголовок : Volodarskiy
Язык : Russian
Default : Нет
Forced : Нет

Аудио #8
Идентификатор : 9
Формат : DTS
Формат/Информация : Digital Theater Systems
Режим : 16
Параметр Endianness формата : Big
Идентификатор кодека : A_DTS
Продолжительность : 1 ч. 49 м.
Вид битрейта : Постоянный
Битрейт : 1509 Кбит/сек
Каналы : 6 каналов
Расположение каналов : Front: L C R, Side: L R, LFE
Частота : 48,0 КГц
Битовая глубина : 24 бит
Метод сжатия : С потерями
Размер потока : 1,15 Гбайт (8%)
Заголовок : dts 5.1 1536kbps
Язык : English
Default : Нет
Forced : Нет

Текст #1
Идентификатор : 10
Формат : UTF-8
Идентификатор кодека : S_TEXT/UTF8
Идентификатор кодека/Информация : UTF-8 Plain Text
Язык : Russian
Default : Да
Forced : Нет

Текст #2
Идентификатор : 11
Формат : UTF-8
Идентификатор кодека : S_TEXT/UTF8
Идентификатор кодека/Информация : UTF-8 Plain Text
Язык : Russian
Default : Нет
Forced : Нет

Текст #3
Идентификатор : 12
Формат : UTF-8
Идентификатор кодека : S_TEXT/UTF8
Идентификатор кодека/Информация : UTF-8 Plain Text
Язык : English
Default : Нет
Forced : Нет

Текст #4
Идентификатор : 13
Формат : UTF-8
Идентификатор кодека : S_TEXT/UTF8
Идентификатор кодека/Информация : UTF-8 Plain Text
Заголовок : SDH
Язык : English
Default : Нет
Forced : Нет

Меню
00:00:00.000 : en:00:00:00.000
00:05:36.044 : en:00:05:36.044
00:10:44.185 : en:00:10:44.185
00:15:15.206 : en:00:15:15.206
00:20:42.283 : en:00:20:42.283
00:24:47.736 : en:00:24:47.736
00:29:20.842 : en:00:29:20.842
00:36:24.099 : en:00:36:24.099
00:40:56.371 : en:00:40:56.371
00:45:39.278 : en:00:45:39.278
00:52:17.051 : en:00:52:17.051
00:58:13.782 : en:00:58:13.782
01:05:49.988 : en:01:05:49.988
01:10:28.683 : en:01:10:28.683
01:14:35.388 : en:01:14:35.388
01:20:14.560 : en:01:20:14.560
01:24:46.915 : en:01:24:46.915
01:31:11.925 : en:01:31:11.925
01:38:23.648 : en:01:38:23.648
01:41:02.640 : en:01:41:02.640
Свернуть
Знаете ли вы, что...
Фильм снят по мотивам одноименного комикса.

Эллен Помпео и Мариса Томей рассматривались на роль Деб.

На начальных стадиях создания фильма Винса Вона брали на роль Бобби, а Оуэна Уилсона — на роль Стига.

В трейлере используется песня «Die by the Drop» группы The Dead Weather. Эта же песня ранее использовалась в трейлере к фильму Бальтасара Кормакура «Контрабанда» (2011), главную роль в котором исполнил также Марк Уолберг.

Дэвид О. Расселл, Даг Лайман, Антуан Фукуа, Пьер Морель и Мартин Кэмпбелл рассматривались на место режиссера проекта.

Когда Бобби удерживает Куинса в его офисе, вооруженный помощник Куинса заходит внутрь. Американские военнослужащие, как правило, не носят подвешенное на ремне оружие, пребывая на базе.

Магазин рыболовных принадлежностей, где работает друг Стига и где он и Бобби встречаются после побега, очевидно, находится не в Техасе. По техасским законам неоновый знак пива на витрине запрещен.

Когда Эрл играет в русскую рулетку с Бобби, патроны меняют свое положение на столе после смены кадра.

Когда агент ЦРУ убивает босса Бобби, его мертвое тело лежит рядом со столом. Несколькими кадрами позже тело лежит в дверях, ведущих в столовую.

Когда Бобби и Стиг въезжают в Техас из Мексики, они пересекают реку Рио-Гранде, которая течет справа налево относительно их движения. Но Рио-Гранде течет на восток вдоль этой границы, а поэтому должна течь слева направо, когда они идут на север.

Эрл говорит Папе, что он мог бы организовать нападение вертолетов Apache A-6. A-6 — это реактивный истребитель, а вертолет Apache обозначается как AH-64.

Свернуть
Скриншоты
Изображение
Изображение
Изображение
Изображение
Свернуть
Не в сети
Профиль  
Начать новую темуОтветить на тему  [ 1 сообщение ] 
Вы не можете начинать темы
Вы не можете отвечать на сообщения
Вы не можете редактировать свои сообщения
Вы не можете удалять свои сообщения