Правила форума

  • В этом разделе создание новых тем Запрещено.
  • Для создания новых тем пользуйтесь Корневым разделом DVD и HD фильмы.
Начать новую темуОтветить на тему  [ 1 сообщение ] 
Торрент файл
Размер: 4.71 GB • Зарегистрирован: 3 года 10 месяцев • Статус: Проверено
Скачан: 58 раз • Желающих скачать: 0 • Поблагодарили: 16 раз
 Раздают: 1  |  0 KB/s  ]   Качают: 0  |  0 KB/s  ] 
Сообщения
 Добавлено: 2013-01-31 21:26
Модератор
Аватара пользователя
Стаж: 6 лет 10 месяцев
Возраст: 33
Сообщений: 5908
Спасибок: 61265
Лайков: 3540
Изображение

Двадцать одно
21


Год выпуска: 2008
Страна: США
Слоган: «В Вегасе ты можешь стать кем угодно»
Жанр: драма, криминал
Продолжительность: 02:02:41
Перевод: Профессиональный (полное дублирование)
Режиссер: Роберт Лукетич
Сценарий: Питер Стайнфелд, Аллан Лоб, Бен Мезрич
Продюсер: Дэна Брунетти, Майкл Де Лука, Кевин Спейси, Уильям С. Бисли, Райан Кэвэна
Оператор: Рассел Карпентер
Композитор: Дэвид Сарди
В ролях: Джим Стёрджесс, Кевин Спейси, Кейт Босворт, Аарон Йу, Лиза Лапира, Джекоб Питтс, Лоренс Фишбёрн, Джек МакГи, Джош Гад, Сэм Голзари, Хелен Кэри, Джек Гилпин
Бюджет: $35 000 000
Сборы в США: $81 159 365
Сборы в России: $4 762 700
Сборы в мире: $157 927 340
Мировая премьера: 7 марта 2008
Релиз на DVD: 5 августа 2010, «Columbia/Sony»
Релиз на Blu-ray: 26 февраля 2009, «Columbia/Sony»
Описание: Карточная игра - комбинация уникальных математических расчетов, превосходных актерских талантов и хладнокровной выдержки. Карточный игрок - человек особого склада. Молодые люди решили провернуть аферу века и разорить крупнейшие казино страны на астрономическую сумму. Они решили взять Вегас! Их пятеро. Игра захватила их целиком. Их игра поразила своей виртуозностью. Они изменили ход самой игры.

Изображение User Rating: 7.879 (48 508)
Изображение User Rating: 6.70 (118 287)
MPAA: PG-13 - Детям до 13 лет просмотр не желателен
Раздача группы: Изображение
Изображение
Качество: BDRip, 720p
Формат: MKV
Видео: AVC; 1280x534 (2.35:1); 4111 Kbps; 23,976 fps; 0,251 bit/pixel
Аудио №1: русский; AC3; 640 Kbps; CBR; 6 ch
Аудио №2: AC3; 640 Kbps; CBR; 6 ch
Оригинал
Субтитры №1: русские
Субтитры №2:

mediainfo
Общее
Уникальный идентификатор : 178951084804808731475707637771453424839 (0x86A0B9ABFD8E7D48AF6DA597DE8D64C7)
Полное имя : E:торрент21 (2008) BDRip .mkv
Формат : Matroska
Версия формата : Version 2
Размер файла : 5,46 Гбайт
Продолжительность : 2 ч. 2 м.
Общий поток : 6371 Кбит/сек
Дата кодирования : UTC 2011-12-28 07:52:37
Программа кодирования : mkvmerge v5.1.0 ('And so it goes') built on Nov 28 2011 23:58:28
Библиотека кодирования : libebml v1.2.3 libmatroska v1.3.0

Видео
Идентификатор : 1
Формат : AVC
Формат/Информация : Advanced Video Codec
Профиль формата : High@L4.1
Параметр CABAC формата : Да
Параметр ReFrames формата : 12 кадров
Идентификатор кодека : V_MPEG4/ISO/AVC
Продолжительность : 2 ч. 2 м.
Битрейт : 4094 Кбит/сек
Ширина : 1280 пикселей
Высота : 534 пикселя
Соотношение сторон : 2,40:1
Частота кадров : 23,976 кадра/сек
Цветовое пространство : YUV
Субдискретизация насыщенности : 4:2:0
Битовая глубина : 8 бит
Тип развёртки : Прогрессивная
Бит/(Пиксели*Кадры) : 0.250
Размер потока : 3,51 Гбайт (64%)
Библиотека кодирования : x264 core 120 r2120 0c7dab9
Настройки программы : cabac=1 / ref=12 / deblock=1:-2:-2 / analyse=0x3:0x113 / me=umh / subme=11 / psy=1 / psy_rd=1.05:0.15 / mixed_ref=1 / me_range=48 / chroma_me=1 / trellis=2 / 8x8dct=1 / cqm=0 / deadzone=21,11 / fast_pskip=0 / chroma_qp_offset=-3 / threads=6 / sliced_threads=0 / nr=0 / decimate=1 / interlaced=0 / bluray_compat=0 / constrained_intra=0 / bframes=10 / b_pyramid=2 / b_adapt=2 / b_bias=0 / direct=1 / weightb=1 / open_gop=0 / weightp=2 / keyint=240 / keyint_min=23 / scenecut=40 / intra_refresh=0 / rc_lookahead=80 / rc=crf / mbtree=1 / crf=17.8 / qcomp=0.70 / qpmin=0 / qpmax=69 / qpstep=4 / vbv_maxrate=50000 / vbv_bufsize=62500 / crf_max=0.0 / nal_hrd=none / ip_ratio=1.40 / aq=2:0.90
Язык : English

Аудио #1
Идентификатор : 2
Формат : AC-3
Формат/Информация : Audio Coding 3
Расширение режима : CM (complete main)
Идентификатор кодека : A_AC3
Продолжительность : 2 ч. 2 м.
Вид битрейта : Постоянный
Битрейт : 640 Кбит/сек
Каналы : 6 каналов
Расположение каналов : Front: L C R, Side: L R, LFE
Частота : 48,0 КГц
Битовая глубина : 16 бит
Метод сжатия : С потерями
Размер потока : 562 Мбайт (10%)
Язык : Russian

Аудио #2
Идентификатор : 3
Формат : DTS
Формат/Информация : Digital Theater Systems
Идентификатор кодека : A_DTS
Продолжительность : 2 ч. 2 м.
Вид битрейта : Постоянный
Битрейт : 1510 Кбит/сек
Каналы : 6 каналов
Расположение каналов : Front: L C R, Side: L R, LFE
Частота : 48,0 КГц
Битовая глубина : 24 бит
Метод сжатия : С потерями
Размер потока : 1,29 Гбайт (24%)
Язык : English

Текст #1
Идентификатор : 4
Формат : UTF-8
Идентификатор кодека : S_TEXT/UTF8
Идентификатор кодека/Информация : UTF-8 Plain Text
Язык : Russian

Текст #2
Идентификатор : 5
Формат : UTF-8
Идентификатор кодека : S_TEXT/UTF8
Идентификатор кодека/Информация : UTF-8 Plain Text
Язык : English

Меню
00:00:00.000 : en:Chapter 01
00:08:00.271 : en:Chapter 02
00:16:36.912 : en:Chapter 03
00:23:36.957 : en:Chapter 04
00:29:16.963 : en:Chapter 05
00:32:03.963 : en:Chapter 06
00:40:51.615 : en:Chapter 07
00:48:13.890 : en:Chapter 08
00:55:44.758 : en:Chapter 09
01:04:20.356 : en:Chapter 10
01:12:50.616 : en:Chapter 11
01:22:15.680 : en:Chapter 12
01:30:05.274 : en:Chapter 13
01:38:09.884 : en:Chapter 14
01:45:18.145 : en:Chapter 15
01:48:58.990 : en:Chapter 16
Свернуть
"Знаете ли Вы, что..."
  • Снят фильм по книге Бена Мезрича «Удар по казино», написанной в 2002 году и основанной на реальных событиях.
  • Всё началось в 1994 году, когда выдающегося студента MIT пригласили слетать в Алтантик-Сити на бои Холифилда. В те выходные этот паренёк увидел, как математика помогла его друзьям обыграть казино на несколько тысяч долларов за пару часов. Подобной демонстрации хватило для того, чтобы затянуть Кевина (по фильму он Бен) в мир блэкджека.
  • Бен Мезрич несколько лет собирал информацию о группе студентов MIT, использовавших усовершенствованную систему подсчёта карт. Он встречался с бывшими участниками команд, с самим главным героем, со специалистами по системам безопасности казино и со всеми остальными, кто имел хоть какое-то отношение к той истории.
  • В период с 1994 по 1998 эти одарённые студенты заработали в Вегасе несколько миллионов долларов.
  • Съёмки фильма проходили с марта 2007 года в Бостоне и Лас-Вегасе.
  • Джефф Ма (прообраз Бена Кемпбелла) засветился в роли крупье в казино Planet Hollywood.
Свернуть
Скриншоты

Изображение
Изображение
Изображение
Изображение
Изображение
Изображение
Свернуть
_________________
ИзображениеИзображение Изображение
Изображение
 tany1984 и di-ys1 нравится это.
Не в сети
Профиль  
Начать новую темуОтветить на тему  [ 1 сообщение ] 
Вы не можете начинать темы
Вы не можете отвечать на сообщения
Вы не можете редактировать свои сообщения
Вы не можете удалять свои сообщения