Правила форума

  • В этом разделе создание новых тем Запрещено.
  • Для создания новых тем пользуйтесь Корневым разделом DVD и HD фильмы.
Начать новую темуОтветить на тему  [ Сообщений: 2 ] 
Торрент файл
Размер: 5.79 GB • Зарегистрирован: 5 лет 5 месяцев • Статус: Проверено
Скачан: 89 раз • Желающих скачать: 0 • Поблагодарили: 6 раз
 Раздают: 1  |  0 KB/s  ]   Качают: 0  |  0 KB/s  ] 
Сообщения
 Добавлено: 2011-07-04 13:30
Top-releaser
Аватара пользователя
Стаж: 8 лет 9 месяцев
Сообщений: 479
Спасибок: 20190
Лайков: 16
Двенадцать

Twelve

Изображение


Год выпуска: 2010
Страна: Изображение США, Изображение Франция; Gaumont
Слоган: «Youth beauty money for some people everything is never enough»
Жанр: Триллер, драма
Продолжительность: 01:34:34
Перевод: Профессиональный (многоголосый закадровый) R5, Оригинал
Cубтитры: Russian, English

Режиссёр: Джоэл Шумахер / Joel Schumacher

В ролях: Кифер Сазерленд, Чейс Кроуфорд, Рори Калкин, Филип Эттинджер, Эсти Гинзбург, Кертис «50 Cent» Джексон, Зои Кравиц, Эмили Миде, Эмма Робертс, Эллен Баркин.

Описание: Главного героя, состоятельного старшеклассника Майка, исключают из школы. Парень находит себя в мире торговли наркотиками. Дела идут успешно, деньги текут рекой, но в один день всё меняется: брат героя оказывается жестоко убит, а лучший друг арестован.

Качество: BDRip 720p R5
Формат: MKV

Видео: MPEG-4 AVC 1280x692, 24 fps, ~ 6808 Кбит/сек

Аудио 1: 48 kHz, AC3 Dolby Digital, 6 ch (L,C,R,l,r) + LFE ch, ~448 kbps (Многоголосый закадровый)
Аудио 2: 48 kHz, DTS, 6 каналов, ~1510 kbit/s (Оригинал)
Изображение

Изображение
MediaInfo

Общее
Уникальный идентификатор : 214251167964200466954089689294476201979 (0xA12F4624E0DCF62BA58B3C9A5B50CFFB)
Полное имя : C:\Users\Домашний\Desktop\Dvenadcat BDRip 720p[nntt].mkv
Формат : Matroska
Размер файла : 5,79 Гбайт
Продолжительность : 1 ч. 34 м.
Общий поток : 8762 Кбит/сек
Название фильма : Двенадцать / Twelve (2010) .....:::UNIONGANG:::.....
Дата кодирования : UTC 2011-07-01 10:55:44
Программа кодирования : mkvmerge v4.8.0 ('I Got The...') сборка от May 24 2011 03:12:58
Библиотека кодирования : libebml v1.2.0 + libmatroska v1.1.0

Видео
Идентификатор : 1
Формат : AVC
Формат/Информация : Advanced Video Codec
Профиль формата : High@L4.1
Параметр CABAC формата : Да
Параметр ReFrames формата : 8 кадры
Идентификатор кодека : V_MPEG4/ISO/AVC
Продолжительность : 1 ч. 34 м.
Битрейт : 6808 Кбит/сек
Ширина : 1280 пикс.
Высота : 692 пикс.
Соотношение сторон : 1,850
Частота кадров : 23,976 кадр/сек
Цветовое пространство : YUV
Подвыборка цветности : 4:2:0
Битовая глубина : 8 бит
Тип развёртки : Прогрессивная
Бит/(Пиксели*Кадры) : 0.321
Размер потока : 4,38 Гбайт (76%)
Заголовок : Twelve.2010.720p.BluRay.x264.DTS-WiKi
Библиотека кодирования : x264 core 98 r1649 c54c47d
Настройки программы : cabac=1 / ref=8 / deblock=1:-3:-3 / analyse=0x3:0x113 / me=umh / subme=9 / psy=1 / psy_rd=1.10:0.00 / mixed_ref=1 / me_range=32 / chroma_me=1 / trellis=2 / 8x8dct=1 / cqm=0 / deadzone=21,11 / fast_pskip=0 / chroma_qp_offset=-4 / threads=6 / sliced_threads=0 / nr=0 / decimate=0 / interlaced=0 / constrained_intra=0 / bframes=6 / b_pyramid=2 / b_adapt=2 / b_bias=0 / direct=3 / weightb=1 / weightp=2 / keyint=250 / keyint_min=25 / scenecut=40 / intra_refresh=0 / rc_lookahead=48 / rc=2pass / mbtree=1 / bitrate=6808 / ratetol=1.0 / qcomp=0.60 / qpmin=10 / qpmax=51 / qpstep=4 / cplxblur=20.0 / qblur=0.5 / ip_ratio=1.40 / aq=1:0.80
Язык : English

Аудио #1
Идентификатор : 2
Формат : AC-3
Формат/Информация : Audio Coding 3
Расширение режима : CM (complete main)
Идентификатор кодека : A_AC3
Продолжительность : 1 ч. 34 м.
Вид битрейта : Постоянный
Битрейт : 448 Кбит/сек
Канал(ы) : 6 канала(ов)
Расположение каналов : Front: L C R, Side: L R, LFE
Частота : 48,0 КГц
Битовая глубина : 16 бит
Метод сжатия : С потерями
Размер потока : 303 Мбайт (5%)
Заголовок : AC3 5.1 @ 448 kb/s [Russian MVO, R5]
Язык : Russian

Аудио #2
Идентификатор : 3
Формат : DTS
Формат/Информация : Digital Theater Systems
Идентификатор кодека : A_DTS
Продолжительность : 1 ч. 34 м.
Вид битрейта : Постоянный
Битрейт : 1510 Кбит/сек
Канал(ы) : 6 канала(ов)
Расположение каналов : Front: L C R, Side: L R, LFE
Частота : 48,0 КГц
Битовая глубина : 24 бит
Метод сжатия : С потерями
Задержка видео : 11 мс.
Размер потока : 1021 Мбайт (17%)
Заголовок : DTS 5.1 @ 1510 kb/s [English]
Язык : English

Текст #1
Идентификатор : 4
Формат : UTF-8
Идентификатор кодека : S_TEXT/UTF8
Идентификатор кодека/Информация : UTF-8 Plain Text
Заголовок : Russian
Язык : Russian

Текст #2
Идентификатор : 5
Формат : UTF-8
Идентификатор кодека : S_TEXT/UTF8
Идентификатор кодека/Информация : UTF-8 Plain Text
Заголовок : English
Язык : English


Свернуть
Скриншоты

Изображение
Изображение
Изображение
Изображение
Изображение
Изображение
Свернуть

Раздача:

Изображение
_________________
Изображение
Изображение
Не в сети
Профиль  
 Добавлено: 2011-08-24 07:44 (спустя 1 месяц 19 дней)
Аватара пользователя
Стаж: 7 лет 11 месяцев
Сообщений: 786
Спасибок: 25
Лайков: 9
Отличный фильм :men:
Не в сети
Профиль  
Начать новую темуОтветить на тему  [ Сообщений: 2 ] 
Вы не можете начинать темы
Вы не можете отвечать на сообщения
Вы не можете редактировать свои сообщения
Вы не можете удалять свои сообщения