Правила форума

  • В этом разделе создание новых тем Запрещено.
  • Для создания новых тем пользуйтесь Корневым разделом DVD и HD фильмы.
Начать новую темуОтветить на тему  [ Сообщений: 2 ] 
Торрент файл
Размер: 5.65 GB • Зарегистрирован: 2 года 10 месяцев • Статус: T Временный релиз
Скачан: 3 раза • Желающих скачать: 0 • Поблагодарили: 4 раза
 Раздают: 0  |  0 KB/s  ]   Качают: 1  |  0 KB/s  ] 
 Полного источника не было 8 месяцев 
Сообщения
 Добавлено: 2014-02-02 11:46
Книголюб
Аватара пользователя
Стаж: 7 лет 2 месяца
Сообщений: 2823
Спасибок: 48823
Лайков: 73
Дверь
Die Tür

Изображение


Год выпуска: 2009
Страна: Германия
Жанр: триллер, драма, детектив
Продолжительность: 01:43:36
Перевод: Любительский (одноголосый закадровый)

Режиссёр: Анно Саул
В ролях: Мадс Миккелсен, Джессика Шварц, Хайке Макатч, Неле Требс, Рюдигер Кумштедт, Карина Борчет, Валерия Есенбарт, Томас Тиме, Тим Сейфи, Штефан Кампвирт
Описание: Успешный живописец Дэвид переживает не лучшие времена. Он винит себя в гибели семилетней дочери, погибшей в результате неверно принятого им решения. Но однажды все меняется, когда герой обнаруживает таинственную дверь, которая дает ему возможность вернуться к прошлым ошибкам и все исправить, снова и снова… Однако то, что показалось счастьем все изменить, оборачивается форменным ужасом, ведущим к необратимым последствиям…
Мировая премьера: 26 сентября 2009
Изображение 6.8531120

Качество: BDRip 720p
Формат: MKV
Видео кодек: H.264
Аудио кодек: DTS
Видео: 1280x544 24fps 4 784 Kbps
Аудио #1: Русский: 48000Hz 6ch 1 510 Kbps
Аудио #2: Немецкий: 48000Hz 6ch 1 510 Kbps
MediaInfo
General
Unique ID : 178468357078952630986950650040973383338 (0x8643C15B7F6C829AA6B2AD622AD5D6AA)
Complete name : K:\Torrent\The.Door..mkv
Format : Matroska
Format version : Version 2
File size : 5.65 GiB
Duration : 1h 43mn
Overall bit rate : 7 803 Kbps
Encoded date : UTC 2014-01-30 20:18:29
Writing application : mkvmerge v5.2.1 ('A Far Off Place') built on Jan 2 2012 23:21:10
Writing library : libebml v1.2.3 + libmatroska v1.3.0

Video
ID : 1
Format : AVC
Format/Info : Advanced Video Codec
Format profile : High@L4.1
Format settings, CABAC : Yes
Format settings, ReFrames : 8 frames
Muxing mode : Header stripping
Codec ID : V_MPEG4/ISO/AVC
Duration : 1h 43mn
Bit rate : 4 784 Kbps
Width : 1 280 pixels
Height : 544 pixels
Display aspect ratio : 2.35:1
Frame rate : 24.000 fps
Color space : YUV
Chroma subsampling : 4:2:0
Bit depth : 8 bits
Scan type : Progressive
Bits/(Pixel*Frame) : 0.286
Stream size : 3.35 GiB (59%)
Writing library : x264 core 112 r1834 a51816a
Encoding settings : cabac=1 / ref=8 / deblock=1:-3:-3 / analyse=0x3:0x113 / me=umh / subme=9 / psy=1 / psy_rd=1.00:0.10 / mixed_ref=1 / me_range=32 / chroma_me=1 / trellis=2 / 8x8dct=1 / cqm=2 / deadzone=21,11 / fast_pskip=0 / chroma_qp_offset=-2 / threads=12 / sliced_threads=0 / nr=0 / decimate=1 / interlaced=0 / constrained_intra=0 / bframes=6 / b_pyramid=2 / b_adapt=2 / b_bias=0 / direct=3 / weightb=1 / open_gop=0 / weightp=2 / keyint=250 / keyint_min=24 / scenecut=40 / intra_refresh=0 / rc_lookahead=60 / rc=2pass / mbtree=1 / bitrate=4784 / ratetol=1.0 / qcomp=0.60 / qpmin=1 / qpmax=51 / qpstep=4 / cplxblur=20.0 / qblur=0.5 / vbv_maxrate=30000 / vbv_bufsize=30000 / ip_ratio=1.40 / aq=1:0.60 / nal_hrd=none
Language : English
Default : Yes
Forced : No

Audio #1
ID : 2
Format : DTS
Format/Info : Digital Theater Systems
Muxing mode : Header stripping
Codec ID : A_DTS
Duration : 1h 43mn
Bit rate mode : Constant
Bit rate : 1 510 Kbps
Channel(s) : 6 channels
Channel positions : Front: L C R, Side: L R, LFE
Sampling rate : 48.0 KHz
Bit depth : 16 bits
Compression mode : Lossy
Stream size : 1.09 GiB (19%)
Title : DTS 5.1 @ 1536 kbps Serbin
Language : Russian
Default : Yes
Forced : No

Audio #2
ID : 3
Format : DTS
Format/Info : Digital Theater Systems
Muxing mode : Header stripping
Codec ID : A_DTS
Duration : 1h 43mn
Bit rate mode : Constant
Bit rate : 1 510 Kbps
Channel(s) : 6 channels
Channel positions : Front: L C R, Side: L R, LFE
Sampling rate : 48.0 KHz
Bit depth : 16 bits
Compression mode : Lossy
Stream size : 1.09 GiB (19%)
Title : DTS 5.1 @ 1536 kbps Original
Language : German
Default : No
Forced : No

Text #1
ID : 4
Format : PGS
Muxing mode : zlib
Codec ID : S_HDMV/PGS
Codec ID/Info : The same subtitle format used on BDs/HD-DVDs
Language : Russian
Default : No
Forced : No

Text #2
ID : 5
Format : PGS
Muxing mode : zlib
Codec ID : S_HDMV/PGS
Codec ID/Info : The same subtitle format used on BDs/HD-DVDs
Language : German
Default : Yes
Forced : No


Свернуть

Скриншоты
Изображение
Изображение
Изображение
Свернуть
Не в сети
Профиль  
 Добавлено: 2016-06-07 19:29 (спустя 2 года 4 месяца)
Аватара пользователя
Стаж: 6 лет 7 месяцев
Сообщений: 128
Лайков: 25
Очень фильм понравился. Хотелось бы купить в магазине на лицензионном диске :'( Но где эти магазины? Видеотехники продают все больше, а видео-продукции все меньше.
 kolakola и Ishtar нравится это.
Не в сети
Профиль  
Начать новую темуОтветить на тему  [ Сообщений: 2 ] 
Вы не можете начинать темы
Вы не можете отвечать на сообщения
Вы не можете редактировать свои сообщения
Вы не можете удалять свои сообщения