Правила форума

  • В этом разделе создание новых тем Запрещено.
  • Для создания новых тем пользуйтесь Корневым разделом DVD и HD фильмы.
Начать новую темуОтветить на тему  [ 1 сообщение ] 
Торрент файл
Размер: 4.76 GB • Зарегистрирован: 3 года 7 месяцев • Статус: T Временный релиз
Скачан: 48 раз • Желающих скачать: 0 • Поблагодарили: 13 раз
 Раздают: 0  |  0 KB/s  ]   Качают: 0  |  0 KB/s  ] 
 Полного источника не было 8 месяцев 
Сообщения
 Добавлено: 2013-04-08 13:38
Аватара пользователя
Стаж: 7 лет 2 месяца
Сообщений: 7167
Спасибок: 81991
Лайков: 2438
Дверь

The Door

Изображение


Год выпуска: 2013
Страна: ИзображениеСША
Жанр: Триллер
Продолжительность: 01:28:56
Перевод: Любительский (одноголосый закадровый)

Режиссёр: Мэттью Арнольд
В ролях: Даллас Робертс, Элисон Иствуд, Энн Дудек, Мария Боннер, Мэтти Липтак, Кристофер Берри, Джонатан Барон, Тони Шина, Ричи Монтгомери, Марко Ст. Джон
Описание: Ведущий радиошоу Чарли Кроу узнает в прямом эфире от одного из радиослушателей о неких Людях Теней, которые преследуют своих жертв и стали причиной уже многих смертей. Чарли берется расследовать так называемые «встречи» с таинственными созданиями и вскоре сам начинает ИХ видеть…


Качество: BDRip 720p
Формат: MKV
Видео кодек: H264 (AVC)
Аудио кодек: AC3 (Dolby Digital)
Видео: 1 280x528, 23.976 fps, 6 398 Kbps
Аудио #1: 48.0 KHz, 6 ch, 640 Kbps [Любительский (одноголосый закадровый)] den904
Аудио #2: 48.0 KHz, 6 ch, 640 Kbps [Оригинальная звуковая дорожка]
Изображение
Изображение
Скриншоты
Изображение

Изображение

Изображение

Изображение

Изображение
Свернуть
MI
General
Unique ID : 247026389309999663538801778918224077895 (0xB9D78D515A603588BEA537E980ACA447)
Complete name : Дверь.2013.mkv
Format : Matroska
Format version : Version 4 / Version 2
File size : 4.76 GiB
Duration : 1h 28mn
Overall bit rate : 7 660 Kbps
Encoded date : UTC 2013-04-07 18:37:02
Writing application : mkvmerge v6.1.0 ('Old Devil') built on Mar 2 2013 14:32:37
Writing library : libebml v1.3.0 + libmatroska v1.4.0

Video
ID : 1
Format : AVC
Format/Info : Advanced Video Codec
Format profile : High@L4.1
Format settings, CABAC : Yes
Format settings, ReFrames : 5 frames
Codec ID : V_MPEG4/ISO/AVC
Duration : 1h 28mn
Bit rate : 6 398 Kbps
Width : 1 280 pixels
Height : 528 pixels
Display aspect ratio : 2.40:1
Frame rate : 23.976 fps
Color space : YUV
Chroma subsampling : 4:2:0
Bit depth : 8 bits
Scan type : Progressive
Bits/(Pixel*Frame) : 0.395
Stream size : 3.87 GiB (81%)
Writing library : x264 core 130 r2273 b3065e6
Encoding settings : cabac=1 / ref=5 / deblock=1:1:0 / analyse=0x3:0x133 / me=umh / subme=7 / psy=1 / psy_rd=1.00:0.00 / mixed_ref=1 / me_range=16 / chroma_me=1 / trellis=1 / 8x8dct=1 / cqm=0 / deadzone=21,11 / fast_pskip=0 / chroma_qp_offset=-2 / threads=12 / lookahead_threads=2 / sliced_threads=0 / nr=0 / decimate=1 / interlaced=0 / bluray_compat=0 / constrained_intra=0 / bframes=3 / b_pyramid=2 / b_adapt=2 / b_bias=0 / direct=3 / weightb=1 / open_gop=0 / weightp=2 / keyint=240 / keyint_min=23 / scenecut=40 / intra_refresh=0 / rc_lookahead=60 / rc=2pass / mbtree=1 / bitrate=6398 / ratetol=1.0 / qcomp=0.60 / qpmin=10 / qpmax=51 / qpstep=4 / cplxblur=20.0 / qblur=0.5 / vbv_maxrate=50000 / vbv_bufsize=50000 / nal_hrd=none / ip_ratio=1.40 / aq=1:1.00
Default : Yes
Forced : No

Audio #1
ID : 2
Format : AC-3
Format/Info : Audio Coding 3
Mode extension : CM (complete main)
Format settings, Endianness : Big
Codec ID : A_AC3
Duration : 1h 28mn
Bit rate mode : Constant
Bit rate : 640 Kbps
Channel(s) : 6 channels
Channel positions : Front: L C R, Side: L R, LFE
Sampling rate : 48.0 KHz
Bit depth : 16 bits
Compression mode : Lossy
Stream size : 407 MiB (8%)
Language : Russian
Default : No
Forced : No

Audio #2
ID : 3
Format : AC-3
Format/Info : Audio Coding 3
Mode extension : CM (complete main)
Format settings, Endianness : Big
Codec ID : A_AC3
Duration : 1h 28mn
Bit rate mode : Constant
Bit rate : 640 Kbps
Channel(s) : 6 channels
Channel positions : Front: L C R, Side: L R, LFE
Sampling rate : 48.0 KHz
Bit depth : 16 bits
Compression mode : Lossy
Stream size : 407 MiB (8%)
Language : English
Default : Yes
Forced : No


Свернуть
 rotametr нравится это.
Не в сети
Профиль  
Начать новую темуОтветить на тему  [ 1 сообщение ] 
Вы не можете начинать темы
Вы не можете отвечать на сообщения
Вы не можете редактировать свои сообщения
Вы не можете удалять свои сообщения