Правила форума

  • В этом разделе создание новых тем Запрещено.
  • Для создания новых тем пользуйтесь Корневым разделом DVD и HD фильмы.
Начать новую темуОтветить на тему  [ Сообщений: 4 ] 
Торрент файл
Размер: 5.87 GB • Зарегистрирован: 4 года 11 месяцев • Статус: Проверено
Скачан: 42 раза • Желающих скачать: 0 • Поблагодарили: 10 раз
 Раздают: 0  |  0 KB/s  ]   Качают: 0  |  0 KB/s  ] 
 Полного источника не было 3 года 
Сообщения
 Добавлено: 2011-12-10 10:44
Top-releaser
Аватара пользователя
Стаж: 8 лет 9 месяцев
Сообщений: 479
Спасибок: 20187
Лайков: 16
Двойник дьявола

The Devil's Double


«Секс... власть... куча денег, что ещё нужно 'принцу' у которого есть всё?»

Изображение


Год выпуска: 2011
Страна: Изображение Нидерланды, Изображение Бельгия; Corrino Media Corporation
Жанр: Драма, биография
Продолжительность: 01:48:51
Перевод: Профессиональный (дублированный) [Лицензия] + Оригинал


Режиссёр: Ли Тамахори / Lee Tamahori

В ролях: Доминик Купер, Людивин Санье, Раад Рави, Мем Ферда, Дар Салим, Халид Лэйт, Пано Масти, Нассер Мемарзиа Филип Куэст, Селва Расалингам


Описание: Секс… Власть… Слишком много денег… Что еще может понадобиться «Принцу», у которого есть все? Разве что двойник.

На него можно спихнуть всю рутину, а в опасных ситуациях он примет удар на себя. Но и Двойник не останется без награды — он получит все, что есть у принца. Все, кроме женщины, которая станет единственным, что Двойник по-настоящему возжелает.


Качество: BDRip 720p R5
Формат: MKV

Видео: AVC, 1280 x 544 (2.353) at 23.976 fps, 4495 Кбит/сек
Аудио 1: DTS 48000Hz 6ch 1510 Kbps [Дубляж]
Аудио 2: DTS 48000Hz 6ch 1510 Kbps [Оригинал]

Раздача: Изображение

Изображение

Изображение
MediaInfo

Общее
Уникальный идентификатор : 196918370613770089108920012723423864107 (0x942519418D6A77718D389789DE54E52B)
Полное имя : C:\Users\Домашний\Desktop\Dvojnik djavola.2011.BDRip.720p.[nntt].mkv
Формат : Matroska
Размер файла : 5,87 Гбайт
Продолжительность : 1 ч. 48 м.
Общий поток : 7719 Кбит/сек
Дата кодирования : UTC 2011-12-09 21:57:57
Программа кодирования : mkvmerge v4.5.0 ('Speed of Light') built on Feb 15 2011 12:50:20
Библиотека кодирования : libebml v1.2.0 + libmatroska v1.1.0

Видео
Идентификатор : 1
Формат : AVC
Формат/Информация : Advanced Video Codec
Профиль формата : High@L4.1
Параметр CABAC формата : Да
Параметр ReFrames формата : 5 кадры
Режим смешивания : Header stripping
Идентификатор кодека : V_MPEG4/ISO/AVC
Продолжительность : 1 ч. 48 м.
Битрейт : 4495 Кбит/сек
Номинальный битрейт : 4227 Кбит/сек
Ширина : 1280 пикс.
Высота : 544 пикс.
Соотношение сторон : 2,35:1
Частота кадров : 23,976 кадр/сек
Цветовое пространство : YUV
Подвыборка цветности : 4:2:0
Битовая глубина : 8 бит
Тип развёртки : Прогрессивная
Бит/(Пиксели*Кадры) : 0.269
Размер потока : 3,42 Гбайт (58%)
Библиотека кодирования : x264 core 119 r2106 07efeb4
Настройки программы : cabac=1 / ref=5 / deblock=1:0:0 / analyse=0x3:0x133 / me=umh / subme=8 / psy=1 / psy_rd=1.00:0.00 / mixed_ref=1 / me_range=16 / chroma_me=1 / trellis=1 / 8x8dct=1 / cqm=0 / deadzone=21,11 / fast_pskip=0 / chroma_qp_offset=-2 / threads=18 / sliced_threads=0 / nr=0 / decimate=1 / interlaced=0 / bluray_compat=0 / constrained_intra=0 / bframes=3 / b_pyramid=2 / b_adapt=1 / b_bias=0 / direct=1 / weightb=1 / open_gop=0 / weightp=2 / keyint=240 / keyint_min=24 / scenecut=40 / intra_refresh=0 / rc_lookahead=40 / rc=2pass / mbtree=1 / bitrate=4227 / ratetol=1.0 / qcomp=0.60 / qpmin=0 / qpmax=69 / qpstep=4 / cplxblur=20.0 / qblur=0.5 / ip_ratio=1.40 / aq=1:1.00
Язык : English

Аудио #1
Идентификатор : 2
Формат : DTS
Формат/Информация : Digital Theater Systems
Профиль формата : MA / Core
Режим смешивания : Header stripping
Идентификатор кодека : A_DTS
Продолжительность : 1 ч. 48 м.
Вид битрейта : Переменный
Битрейт : 1561 Кбит/сек / 1510 Кбит/сек
Канал(ы) : 6 канала(ов)
Расположение каналов : Front: L C R, Side: L R, LFE
Частота : 48,0 КГц
Битовая глубина : 16 бит
Метод сжатия : Без потерь / Lossy
Задержка видео : 43 с.
Язык : Russian

Аудио #2
Идентификатор : 3
Формат : DTS
Формат/Информация : Digital Theater Systems
Режим смешивания : Header stripping
Идентификатор кодека : A_DTS
Продолжительность : 1 ч. 48 м.
Вид битрейта : Постоянный
Битрейт : 1510 Кбит/сек
Канал(ы) : 6 канала(ов)
Расположение каналов : Front: L C R, Side: L R, LFE
Частота : 48,0 КГц
Битовая глубина : 24 бит
Метод сжатия : С потерями
Задержка видео : 11 мс.
Размер потока : 1,15 Гбайт (20%)
Заголовок : english
Язык : English


Свернуть
Скриншоты
Изображение
Изображение
Изображение
Изображение
Изображение
Изображение

Свернуть
_________________
Изображение
Изображение


Последний раз редактировалось Джокер 2011-12-10 16:02, всего редактировалось 1 раз.
Не в сети
Профиль  
 Добавлено: 2011-12-10 12:16 (спустя 1 час 32 минуты)
Аватара пользователя
Стаж: 8 лет 5 месяцев
Сообщений: 56
Лайков: 1
1-й нах!))) спасибо)
помогу с раздачей, а втор не уходи)))
 Naida нравится это.
Не в сети
Профиль  
 Добавлено: 2014-07-05 15:53 (спустя 2 года 6 месяцев)
Стаж: 3 года 4 месяца
Сообщений: 2
встаньте на раздачу плиз!
Не в сети
Профиль  
 Добавлено: 2014-07-06 00:52 (спустя 8 часов)
Аватара пользователя
Стаж: 8 лет 9 месяцев
Сообщений: 1170
Спасибок: 1294
Лайков: 7
будет какая-нибудь местная мини-рецензия?
Не в сети
Профиль  
Начать новую темуОтветить на тему  [ Сообщений: 4 ] 
Вы не можете начинать темы
Вы не можете отвечать на сообщения
Вы не можете редактировать свои сообщения
Вы не можете удалять свои сообщения