Правила форума

  • В этом разделе создание новых тем Запрещено.
  • Для создания новых тем пользуйтесь Корневым разделом DVD и HD фильмы.
Начать новую темуОтветить на тему  [ Сообщений: 2 ] 
Торрент файл
Размер: 9.86 GB • Зарегистрирован: 4 года 11 месяцев • Статус: Проверено
Скачан: 49 раз • Желающих скачать: 0 • Поблагодарили: 10 раз
 Раздают: 0  |  0 KB/s  ]   Качают: 0  |  0 KB/s  ] 
 Полного источника не было 1 год 11 месяцев 
Сообщения
 Добавлено: 2011-12-10 17:23
Top-releaser
Аватара пользователя
Стаж: 8 лет 9 месяцев
Сообщений: 479
Спасибок: 20188
Лайков: 16
Двойник дьявола

The Devil's Double


«Секс... власть... куча денег, что ещё нужно 'принцу' у которого есть всё?»

Изображение


Год выпуска: 2011
Страна: Изображение Нидерланды, Изображение Бельгия; Corrino Media Corporation
Жанр: Драма, биография
Продолжительность: 01:48:52
Перевод: Профессиональный (дублированный) [Лицензия] + Оригинал
Субтитры: Русские, украинские, английскиe


Режиссёр: Ли Тамахори / Lee Tamahori

В ролях: Доминик Купер, Людивин Санье, Раад Рави, Мем Ферда, Дар Салим, Халид Лэйт, Пано Масти, Нассер Мемарзиа Филип Куэст, Селва Расалингам


Описание: Секс… Власть… Слишком много денег… Что еще может понадобиться «Принцу», у которого есть все? Разве что двойник.

На него можно спихнуть всю рутину, а в опасных ситуациях он примет удар на себя. Но и Двойник не останется без награды — он получит все, что есть у принца. Все, кроме женщины, которая станет единственным, что Двойник по-настоящему возжелает.


Качество: BDRip 1080p R5
Формат: MKV

Видео: AVC, 1920x816, 23.976 fps, 9943 Кбит/сек
Аудио 1: DTS 48000Hz 6ch 1510 Kbps [Дубляж]
Аудио 2: DTS 48000Hz 6ch 1510 Kbps [Оригинал]

Раздача: Изображение

Изображение
MediaInfo

Общее
Уникальный идентификатор : 180763175743266767579789865199787267775 (0x87FDB8A728C9FF9BB3DCF73ED84F56BF)
Полное имя : C:\Users\Домашний\Desktop\Dvojnik djavola.2011.(1080p).[nnt].mkv
Формат : Matroska
Размер файла : 9,86 Гбайт
Продолжительность : 1 ч. 48 м.
Общий поток : 13,0 Мбит/сек
Название фильма : The Devils Double (2011) - Released by IRONCLUB
Дата кодирования : UTC 2011-12-10 07:42:01
Программа кодирования : mkvmerge v4.9.1 ('Ich will') built on Jul 11 2011 23:53:15
Библиотека кодирования : libebml v1.2.1 + libmatroska v1.1.1

Видео
Идентификатор : 1
Формат : AVC
Формат/Информация : Advanced Video Codec
Профиль формата : High@L4.1
Параметр CABAC формата : Да
Параметр ReFrames формата : 5 кадры
Идентификатор кодека : V_MPEG4/ISO/AVC
Продолжительность : 1 ч. 48 м.
Битрейт : 9943 Кбит/сек
Ширина : 1920 пикс.
Высота : 816 пикс.
Соотношение сторон : 2,35:1
Частота кадров : 23,976 кадр/сек
Цветовое пространство : YUV
Подвыборка цветности : 4:2:0
Битовая глубина : 8 бит
Тип развёртки : Прогрессивная
Бит/(Пиксели*Кадры) : 0.265
Размер потока : 7,37 Гбайт (75%)
Заголовок : The Devils Double (2011) - Released by IRONCLUB
Библиотека кодирования : x264 core 118 r2085+614 d1cc25d
Настройки программы : cabac=1 / ref=5 / deblock=1:-3:-3 / analyse=0x3:0x113 / me=umh / subme=10 / psy=1 / fade_compensate=0.00 / psy_rd=1.05:0.10 / mixed_ref=1 / me_range=48 / chroma_me=1 / trellis=2 / 8x8dct=1 / cqm=1 / deadzone=21,11 / fast_pskip=0 / chroma_qp_offset=-2 / threads=12 / sliced_threads=0 / nr=0 / decimate=1 / interlaced=0 / bluray_compat=0 / constrained_intra=0 / fgo=0 / bframes=6 / b_pyramid=2 / b_adapt=2 / b_bias=0 / direct=3 / weightb=1 / open_gop=0 / weightp=2 / keyint=250 / keyint_min=23 / scenecut=40 / intra_refresh=0 / rc_lookahead=60 / rc=2pass / mbtree=1 / bitrate=9943 / ratetol=2.0 / qcomp=0.70 / qpmin=3 / qpmax=69 / qpstep=4 / cplxblur=20.0 / qblur=0.5 / vbv_maxrate=40000 / vbv_bufsize=30000 / nal_hrd=none / ip_ratio=1.40 / aq=2:1.00
Язык : English

Аудио #1
Идентификатор : 2
Формат : DTS
Формат/Информация : Digital Theater Systems
Идентификатор кодека : A_DTS
Продолжительность : 1 ч. 48 м.
Вид битрейта : Постоянный
Битрейт : 1510 Кбит/сек
Канал(ы) : 6 канала(ов)
Расположение каналов : Front: L C R, Side: L R, LFE
Частота : 48,0 КГц
Битовая глубина : 24 бит
Метод сжатия : С потерями
Размер потока : 1,15 Гбайт (12%)
Заголовок : DTS 5.1 @ 1536 kbps - Dub, BD RUS
Язык : Russian

Аудио #2
Идентификатор : 3
Формат : DTS
Формат/Информация : Digital Theater Systems
Идентификатор кодека : A_DTS
Продолжительность : 1 ч. 48 м.
Вид битрейта : Постоянный
Битрейт : 1510 Кбит/сек
Канал(ы) : 6 канала(ов)
Расположение каналов : Front: L C R, Side: L R, LFE
Частота : 48,0 КГц
Битовая глубина : 24 бит
Метод сжатия : С потерями
Размер потока : 1,15 Гбайт (12%)
Заголовок : DTS 5.1 @ 1536 kbps
Язык : English

Текст #1
Идентификатор : 4
Формат : UTF-8
Идентификатор кодека : S_TEXT/UTF8
Идентификатор кодека/Информация : UTF-8 Plain Text
Заголовок : BD RUS
Язык : Russian

Текст #2
Идентификатор : 5
Формат : UTF-8
Идентификатор кодека : S_TEXT/UTF8
Идентификатор кодека/Информация : UTF-8 Plain Text
Язык : Ukrainian

Текст #3
Идентификатор : 6
Формат : UTF-8
Идентификатор кодека : S_TEXT/UTF8
Идентификатор кодека/Информация : UTF-8 Plain Text
Язык : English

Текст #4
Идентификатор : 7
Формат : UTF-8
Идентификатор кодека : S_TEXT/UTF8
Идентификатор кодека/Информация : UTF-8 Plain Text
Заголовок : SDH
Язык : English


Свернуть
Скриншоты
Изображение
Изображение
Изображение
Изображение
Изображение
Изображение

Свернуть
_________________
Изображение
Изображение
Не в сети
Профиль  
 Добавлено: 2011-12-23 12:30 (спустя 12 дней)
Аватара пользователя
Стаж: 7 лет
Возраст: 36
Сообщений: 374
Спасибок: 519
Лайков: 4
Я не понимаю, на чем вы смотрите такую узкую картинку, почему не 1920/1080, почему в заголовке 1080?
Не в сети
Профиль  
Начать новую темуОтветить на тему  [ Сообщений: 2 ] 
Вы не можете начинать темы
Вы не можете отвечать на сообщения
Вы не можете редактировать свои сообщения
Вы не можете удалять свои сообщения