Правила форума

  • В этом разделе создание новых тем Запрещено.
  • Для создания новых тем пользуйтесь Корневым разделом DVD и HD фильмы.
Начать новую темуОтветить на тему  [ Сообщений: 4 ] 
Торрент файл
Размер: 9.94 GB • Зарегистрирован: 5 лет • Статус: Проверено
Скачан: 56 раз • Желающих скачать: 0 • Поблагодарили: 11 раз
 Раздают: 0  |  0 KB/s  ]   Качают: 0  |  0 KB/s  ] 
 Полного источника не было 3 года 2 месяца 
Сообщения
 Добавлено: 2011-11-29 10:54
Модератор релиз-группы
Аватара пользователя
Стаж: 9 лет 1 месяц
Возраст: 97
Сообщений: 11659
Спасибок: 6532
Лайков: 269
Двойник дьявола / The Devil's Double
«Секс... власть... куча денег, что ещё нужно 'принцу' у которого есть всё?»

Изображение


Страна: Нидерланды, Бельгия
Студия: Corrino Media Corporation
Жанр: Боевик, драма, биография
Год выпуска: 2011
Продолжительность: 01:48:52
Перевод: Одноголосый закадровый - Вячеслав Замез (zamez)
Оригинальная звуковая дорожка
Cубтитры: английские, русские (Воронин)

Режиссер: Ли Тамахори / Lee Tamahori

В ролях: Доминик Купер, Людивин Санье, Раад Рави, Мем Ферда, Дар Салим, Халид Лэйт, Пано Масти, Нассер Мемарзиа, Филип Куэст, Селва Расалингам и др.

Описание: Секс… Власть… Слишком много денег… Что еще может понадобиться «Принцу», у которого есть все? Разве что двойник.
На него можно спихнуть всю рутину, а в опасных ситуациях он примет удар на себя. Но и Двойник не останется без награды — он получит все, что есть у принца. Все, кроме женщины, которая станет единственным, что Двойник по-настоящему возжелает.
Дои. информация
Изображение
Свернуть

Изображение
Качество: BDRip 1080p
Формат: MKV
Видео: MPEG4/ISO/AVC, 8541 Кбит/сек, 1920*816 (2,35:1), 23,976 кадра/сек
Аудио: Russian, DTS, 6 каналов, 1510 Кбит/сек, 48,0 КГц - Замез [без цензуры]
Аудио 2: Russian, DTS, 6 каналов, 1510 Кбит/сек, 48,0 КГц - Замез [цензурный вариант]
Аудио 3: English, DTS, 6 каналов, 1510 Кбит/сек, 48,0 КГц - original

сриншоты
Изображение

Изображение

Изображение
Свернуть
Mi
Format : Matroska
Format version : Version 2
File size : 9.94 GiB
Duration : 1h 48mn
Overall bit rate : 13.1 Mbps
Encoded date : UTC 2011-11-18 01:04:06
Writing application : mkvmerge v3.0.0 ('Hang up your Hang-Ups') built on Dec 12 2009 15:20:35
Writing library : libebml v0.7.9 + libmatroska v0.8.1

Video
ID : 1
Format : AVC
Format/Info : Advanced Video Codec
Format profile : High@L4.1
Format settings, CABAC : Yes
Format settings, ReFrames : 5 frames
Codec ID : V_MPEG4/ISO/AVC
Duration : 1h 48mn
Bit rate : 8 541 Kbps
Width : 1 920 pixels
Height : 816 pixels
Display aspect ratio : 2.35:1
Frame rate : 23.976 fps
Color space : YUV
Chroma subsampling : 4:2:0
Bit depth : 8 bits
Scan type : Progressive
Bits/(Pixel*Frame) : 0.227
Stream size : 6.30 GiB (63%)
Writing library : x264 core 119 r2106 07efeb4
Encoding settings : cabac=1 / ref=5 / deblock=1:0:0 / analyse=0x3:0x133 / me=umh / subme=8 / psy=1 / psy_rd=1.00:0.00 / mixed_ref=1 / me_range=16 / chroma_me=1 / trellis=1 / 8x8dct=1 / cqm=0 / deadzone=21,11 / fast_pskip=0 / chroma_qp_offset=-2 / threads=18 / sliced_threads=0 / nr=0 / decimate=1 / interlaced=0 / bluray_compat=0 / constrained_intra=0 / bframes=3 / b_pyramid=2 / b_adapt=1 / b_bias=0 / direct=1 / weightb=1 / open_gop=0 / weightp=2 / keyint=240 / keyint_min=24 / scenecut=40 / intra_refresh=0 / rc_lookahead=40 / rc=2pass / mbtree=1 / bitrate=8541 / ratetol=1.0 / qcomp=0.60 / qpmin=0 / qpmax=69 / qpstep=4 / cplxblur=20.0 / qblur=0.5 / ip_ratio=1.40 / aq=1:1.00
Language : English

Audio #1
ID : 2
Format : DTS
Format/Info : Digital Theater Systems
Codec ID : A_DTS
Duration : 1h 48mn
Bit rate mode : Constant
Bit rate : 1 510 Kbps
Channel(s) : 6 channels
Channel positions : Front: L C R, Side: L R, LFE
Sampling rate : 48.0 KHz
Bit depth : 24 bits
Compression mode : Lossy
Stream size : 1.15 GiB (12%)

Audio #2
ID : 3
Format : DTS
Format/Info : Digital Theater Systems
Codec ID : A_DTS
Duration : 1h 48mn
Bit rate mode : Constant
Bit rate : 1 510 Kbps
Channel(s) : 6 channels
Channel positions : Front: L C R, Side: L R, LFE
Sampling rate : 48.0 KHz
Bit depth : 24 bits
Compression mode : Lossy
Stream size : 1.15 GiB (12%)

Audio #3
ID : 4
Format : DTS
Format/Info : Digital Theater Systems
Codec ID : A_DTS
Duration : 1h 48mn
Bit rate mode : Constant
Bit rate : 1 510 Kbps
Channel(s) : 6 channels
Channel positions : Front: L C R, Side: L R, LFE
Sampling rate : 48.0 KHz
Bit depth : 24 bits
Compression mode : Lossy
Delay relative to video : 11ms
Stream size : 1.15 GiB (12%)
Language : English

Text #1
ID : 5
Format : UTF-8
Codec ID : S_TEXT/UTF8
Codec ID/Info : UTF-8 Plain Text

Text #2
ID : 6
Format : UTF-8
Codec ID : S_TEXT/UTF8
Codec ID/Info : UTF-8 Plain Text

Свернуть
_________________
Изображение
Не в сети
Профиль  
 Добавлено: 2011-12-04 15:11 (спустя 5 дней)
Аватара пользователя
Стаж: 8 лет 7 месяцев
Сообщений: 21
Давно ждал в HD. Огромное спасибо релизеру. :) Жму спасибки...........
Не в сети
Профиль  
 Добавлено: 2012-09-13 15:34 (спустя 9 месяцев)
Аватара пользователя
Стаж: 5 лет 1 месяц
Сообщений: 3
исправь сриншоты
Не в сети
Профиль  
 Добавлено: 2012-09-13 19:25 (спустя 3 часа)
Модератор релиз-группы
Аватара пользователя
Стаж: 9 лет 1 месяц
Возраст: 97
Сообщений: 11659
Спасибок: 6532
Лайков: 269

inextremo97:

исправь сКриншоты
как только будет веская причина, а не голословное.... :men:
_________________
Изображение
Не в сети
Профиль  
Начать новую темуОтветить на тему  [ Сообщений: 4 ] 
Вы не можете начинать темы
Вы не можете отвечать на сообщения
Вы не можете редактировать свои сообщения
Вы не можете удалять свои сообщения