Правила форума

  • В этом разделе создание новых тем Запрещено.
  • Для создания новых тем пользуйтесь Корневым разделом DVD и HD фильмы.
Начать новую темуОтветить на тему  [ Сообщений: 2 ] 
Торрент файл
Размер: 6.8 GB • Зарегистрирован: 5 лет 7 месяцев • Статус: Проверено
Скачан: 109 раз • Желающих скачать: 0 • Поблагодарили: 24 раза
 Раздают: 0  |  0 KB/s  ]   Качают: 0  |  0 KB/s  ] 
 Полного источника не было 1 день 1 час 
Сообщения
 Добавлено: 2011-04-30 14:04
Top-seeder
Аватара пользователя
Стаж: 9 лет
Сообщений: 1399
Спасибок: 28652
Лайков: 8
Двойной форсаж / 2 Fast 2 Furious

Изображение


Год выпуска: 2003
Страна: США, Германия
Жанр: боевик, триллер, криминал
Продолжительность: 01:47:41
Перевод: Профессиональный (дубляж)
Cубтитры: русские, английские

Режиссёр: Джон Синглтон
В ролях: Пол Уокер, Тайриз Гибсон, Ева Мендес, Коул Хаузер, Лудакрис, Том Бэрри, Джеймс Римар, Девон Аоки, Амори Ноласко, Майкл Или.
Описание: Брайан О’Конне – бывший полицейский, без ума влюбленный в автомобили и высокую скорость. Вдавленная педаль газа и форсаж, разгоняющий машину до максимума вводит его в состояние восторга.

Брайан вместе со своим напарником Романом Пиарсом планируют осуществить транспортировку крупной суммы «грязных денег» известного криминального авторитета Картера Верона. Но на самом деле все это является лишь прикрытием для Брайана, имеющего задание вывести на чистую воду изворотливого хитроумного преступника, которое он выполняет вместе с тайным агентом по имени Моника Клемент.
Изображение 7.037

Качество: BDRip, 720p
Формат: MKV
Видео кодек: H264 (AVC)
Аудио кодек: AC3 (Dolby Digital),DTS
Видео: 1280 x 542 (2.362) at 23.976 fps AVC at 7 144 Кбит/сек
Аудио #1: Русский AC-3 at 384 Кбит/сек [Профессиональный (дубляж)]
Аудио #2: Английский DTS at 1 536 Кбит/сек
Скриншоты
Изображение
Изображение
Изображение
Изображение
Свернуть

MediaInfo
Общее
Уникальный идентификатор : 242341092996701883863382899097748444865 (0xB651325FE5E61C05AA04D31D0B1916C1)
Полное имя : D:\Закачки\Двойной форсаж.mkv
Формат : Matroska
Размер файла : 6,80 Гбайт
Продолжительность : 1 ч. 47 м.
Общий поток : 9041 Кбит/сек
Название фильма : HQ-Films
Дата кодирования : UTC 2009-04-12 19:45:05
Программа кодирования : mkvmerge v2.4.0 ('Fumbling Towards Ecstasy') built on Oct 11 2008 20:13:15
Библиотека кодирования : libebml v0.7.7 + libmatroska v0.8.1

Видео
Идентификатор : 1
Формат : AVC
Формат/Информация : Advanced Video Codec
Профиль формата : High@L5.1
Параметр CABAC формата : Да
Параметр ReFrames формата : 8 кадров
Идентификатор кодека : V_MPEG4/ISO/AVC
Продолжительность : 1 ч. 47 м.
Битрейт : 7144 Кбит/сек
Ширина : 1280 пикс.
Высота : 542 пикс.
Соотношение сторон : 2,35:1
Частота кадров : 23,976 кадр/сек
Цветовое пространство : YUV
Подвыборка цветности : 4:2:0
Битовая глубина : 8 бит
Тип развёртки : Прогрессивная
Бит/(Пиксели*Кадры) : 0.429
Размер потока : 5,24 Гбайт (77%)
Библиотека кодирования : x264 core 67 r1136M 3f9ba82
Настройки программы : cabac=1 / ref=8 / deblock=1:-3:-3 / analyse=0x3:0x133 / me=umh / subme=9 / psy_rd=1.0:0.0 / mixed_ref=1 / me_range=40 / chroma_me=1 / trellis=2 / 8x8dct=1 / cqm=0 / deadzone=21,11 / chroma_qp_offset=-2 / threads=6 / nr=0 / decimate=1 / mbaff=0 / bframes=4 / b_pyramid=1 / b_adapt=2 / b_bias=0 / direct=3 / wpredb=1 / keyint=250 / keyint_min=25 / scenecut=40 / rc=2pass / bitrate=7144 / ratetol=1.0 / qcomp=0.60 / qpmin=10 / qpmax=51 / qpstep=4 / cplxblur=20.0 / qblur=0.5 / ip_ratio=1.40 / pb_ratio=1.30 / aq=1:0.80
Язык : English

Аудио #1
Идентификатор : 2
Формат : AC-3
Формат/Информация : Audio Coding 3
Расширение режима : CM (complete main)
Идентификатор кодека : A_AC3
Продолжительность : 1 ч. 47 м.
Вид битрейта : Постоянный
Битрейт : 384 Кбит/сек
Каналы : 6 каналов
Расположение каналов : Front: L C R, Side: L R, LFE
Частота : 48,0 КГц
Битовая глубина : 16 бит
Метод сжатия : С потерями
Размер потока : 296 Мбайт (4%)
Язык : Russian

Аудио #2
Идентификатор : 3
Формат : DTS
Формат/Информация : Digital Theater Systems
Идентификатор кодека : A_DTS
Продолжительность : 1 ч. 47 м.
Вид битрейта : Постоянный
Битрейт : 1510 Кбит/сек
Каналы : 6 каналов
Расположение каналов : Front: L C R, Side: L R, LFE
Частота : 48,0 КГц
Битовая глубина : 24 бит
Метод сжатия : С потерями
Размер потока : 1,14 Гбайт (17%)
Заголовок : Main Audio
Язык : English

Текст #1
Идентификатор : 4
Формат : UTF-8
Идентификатор кодека : S_TEXT/UTF8
Идентификатор кодека/Информация : UTF-8 Plain Text
Язык : Russian

Текст #2
Идентификатор : 5
Формат : UTF-8
Идентификатор кодека : S_TEXT/UTF8
Идентификатор кодека/Информация : UTF-8 Plain Text
Язык : English

Свернуть
Не в сети
Профиль  
 Добавлено: 2013-12-28 14:31 (спустя 2 года 7 месяцев)
Аватара пользователя
Стаж: 7 лет 7 месяцев
Сообщений: 90
Ребятки,дайте скорости! ^_^
Не в сети
Профиль  
Начать новую темуОтветить на тему  [ Сообщений: 2 ] 
Вы не можете начинать темы
Вы не можете отвечать на сообщения
Вы не можете редактировать свои сообщения
Вы не можете удалять свои сообщения