Правила форума

  • В этом разделе создание новых тем Запрещено.
  • Для создания новых тем пользуйтесь Корневым разделом DVD и HD фильмы.
Начать новую темуОтветить на тему  [ 1 сообщение ] 
Торрент файл
Размер: 10.69 GB • Зарегистрирован: 3 года • Статус: Проверено
Скачан: 3 раза • Желающих скачать: 0 • Поблагодарили: 3 раза
 Раздают: 0  |  0 KB/s  ]   Качают: 0  |  0 KB/s  ] 
 Полного источника не было 2 года 11 месяцев 
Сообщения
 Добавлено: 2013-12-19 21:25
Модератор релиз-группы
Аватара пользователя
Стаж: 7 лет 8 месяцев
Возраст: 29
Сообщений: 9789
Спасибок: 23733
Лайков: 103
Изображение

Двойной форсаж
2 Fast 2 Furious


Год выпуска: 2003
Страна: США, Германия
Слоган: «Какую скорость ты выдержишь?»
Жанр: боевик, триллер, криминал
Продолжительность: 01:47:40
Перевод: Профессиональный (многоголосый, закадровый)
Профессиональный (полное дублирование)

Режиссер: Джон Синглтон
Сценарий: Гэри Скотт Томпсон, Майкл Брандт, Дерек Хаас
Продюсер: Нил Х. Мориц, Майкл Фоттрел, Хезер Зиген, Ли Р. Майес
Оператор: Мэтью Ф. Леонетти
Композитор: Дэвид Арнольд
В ролях: Пол Уокер, Тайриз Гибсон, Ева Мендес, Коул Хаузер, Лудакрис, Том Бэрри, Джеймс Римар, Девон Аоки, Амори Ноласко, Майкл Или, Джин Онг, Эдвард Финлэй
Бюджет: $76 000 000
Сборы в США: $127 154 901
Сборы в России: $3 274 772
Сборы в мире: $236 041 731
Мировая премьера: 3 июня 2003
Релиз на DVD: 10 марта 2009, «Юниверсал Пикчерс Рус»
Релиз на Blu-ray: 4 августа 2009, «Юниверсал Пикчерс Рус»
Описание: Бывший полицейский Брайан О`Коннер вместе с напарником Романом Пирсом собираются перевезти крупную сумму «грязных» денег известного мафиози Картера Верона в качестве его подручных. Но на самом деле эта работа является только прикрытием для Брайана, который вместе с тайным агентом Моникой Фуэнтес должны уличить изворотливого преступника...

Изображение User Rating: 7.175 (44 678)
Изображение User Rating: 5.40 (102 876)
MPAA: PG-13 - Детям до 13 лет просмотр не желателен
Раздача группы: Изображение
Качество: BDRip (1080p)
Формат: MKV
Видео: AVC; 1920x816 (2.35:1); 11221 Kbps; 23,976 fps; 0,299 bit/pixel
Аудио №1: русский; DTS; 755 Kbps; CBR; 6 ch; 24 bit
Аудио №2: русский; AC3; 448 Kbps; CBR; 6 ch
Аудио №3: английский; DTS; 1510 Kbps; CBR; 6 ch; 24 bit

Субтитры №1: русские
Субтитры №2: русские
Субтитры №3: английские

mediainfo
Общее
Уникальный идентификатор : 181159472761643549543648836695561613283 (0x884A0B9AC0F7D7EBA985E944F96C2FE3)
Полное имя : D:\TORRENT\Dvojnoj.forsazh.[R.G.Daredevil].mkv
Формат : Matroska
Размер файла : 10,7 Гбайт
Продолжительность : 1 ч. 47 м.
Общий поток : 14,2 Мбит/сек
Название фильма : Dvojnoj forsazh 2003 -=Release by Yoker=-
Дата кодирования : UTC 2009-12-25 14:58:12
Программа кодирования : mkvmerge v2.9.8 ('C'est le bon') built on Nov 20 2009 13:01:15
Библиотека кодирования : libebml v0.7.9 + libmatroska v0.8.1

Видео
Идентификатор : 1
Формат : AVC
Формат/Информация : Advanced Video Codec
Профиль формата : High@L4.1
Параметр CABAC формата : Да
Параметр ReFrames формата : 5 кадров
Идентификатор кодека : V_MPEG4/ISO/AVC
Продолжительность : 1 ч. 47 м.
Битрейт : 11,5 Мбит/сек
Ширина : 1920 пикс.
Высота : 816 пикс.
Соотношение сторон : 2,35:1
Частота кадров : 23,976 кадр/сек
Цветовое пространство : YUV
Подвыборка цветности : 4:2:0
Битовая глубина : 8 бит
Тип развёртки : Прогрессивная
Бит/(Пиксели*Кадры) : 0.306
Размер потока : 8,44 Гбайт (79%)
Заголовок : Dvojnoj forsazh 2003 -=Release by Yoker=-
Библиотека кодирования : x264 core 79 r1342kMod e8501ef
Настройки программы : cabac=1 / ref=5 / deblock=1:-1:-1 / analyse=0x3:0x133 / me=umh / subme=7 / psy=1 / psy_rd=1.0:0.0 / mixed_ref=1 / me_range=16 / chroma_me=1 / trellis=1 / 8x8dct=1 / cqm=0 / deadzone=21,11 / chroma_qp_offset=-2 / threads=6 / nr=0 / decimate=1 / mbaff=0 / constrained_intra=0 / bframes=3 / b_pyramid=0 / b_adapt=2 / b_bias=0 / direct=3 / wpredb=1 / wpredp=2 / keyint=250 / keyint_min=25 / scenecut=40 / rc_lookahead=40 / rc=2pass / mbtree=1 / bitrate=11500 / ratetol=1.0 / qcomp=0.60 / qpmin=10 / qpmax=51 / qpstep=4 / cplxblur=20.0 / qblur=0.5 / ip_ratio=1.40 / aq=1:1.00
Язык : English

Аудио #1
Идентификатор : 2
Формат : DTS
Формат/Информация : Digital Theater Systems
Идентификатор кодека : A_DTS
Продолжительность : 1 ч. 47 м.
Вид битрейта : Постоянный
Битрейт : 755 Кбит/сек
Каналы : 6 каналов
Расположение каналов : Front: L C R, Side: L R, LFE
Частота : 48,0 КГц
Битовая глубина : 24 бит
Метод сжатия : С потерями
Размер потока : 581 Мбайт (5%)
Заголовок : Dubljazh_DTS_6ch_768kbps
Язык : Russian

Аудио #2
Идентификатор : 3
Формат : AC-3
Формат/Информация : Audio Coding 3
Расширение режима : CM (complete main)
Идентификатор кодека : A_AC3
Продолжительность : 1 ч. 47 м.
Вид битрейта : Постоянный
Битрейт : 448 Кбит/сек
Каналы : 6 каналов
Расположение каналов : Front: L C R, Side: L R, LFE
Частота : 48,0 КГц
Битовая глубина : 16 бит
Метод сжатия : С потерями
Размер потока : 345 Мбайт (3%)
Заголовок : Mnogogoloska_AC3_6ch_448kbps
Язык : Russian

Аудио #3
Идентификатор : 4
Формат : DTS
Формат/Информация : Digital Theater Systems
Идентификатор кодека : A_DTS
Продолжительность : 1 ч. 47 м.
Вид битрейта : Постоянный
Битрейт : 1510 Кбит/сек
Каналы : 6 каналов
Расположение каналов : Front: L C R, Side: L R, LFE
Частота : 48,0 КГц
Битовая глубина : 24 бит
Метод сжатия : С потерями
Размер потока : 1,14 Гбайт (11%)
Заголовок : Original_DTS_6ch_1536kbps
Язык : English

Текст #1
Идентификатор : 5
Формат : UTF-8
Идентификатор кодека : S_TEXT/UTF8
Идентификатор кодека/Информация : UTF-8 Plain Text
Заголовок : Russian_R5
Язык : Russian

Текст #2
Идентификатор : 6
Формат : UTF-8
Идентификатор кодека : S_TEXT/UTF8
Идентификатор кодека/Информация : UTF-8 Plain Text
Заголовок : Russian_Radegast
Язык : Russian

Текст #3
Идентификатор : 7
Формат : UTF-8
Идентификатор кодека : S_TEXT/UTF8
Идентификатор кодека/Информация : UTF-8 Plain Text
Заголовок : English
Язык : English


Свернуть
"Знаете ли Вы, что..."
  • Уже после того, как начались съемки, выяснилось, что у Девон Аоки нет ни прав, ни водительского опыта.
  • Съемки картины начались 9-го сентября 2002 года в Майами.
Свернуть
Скриншоты

Изображение
Изображение
Изображение
Изображение
Изображение
Изображение
Изображение
Изображение
Изображение
Изображение
Свернуть


Тема поднималась пользователем volkov2009 2013-12-19 21:25.
Не в сети
Профиль  
Начать новую темуОтветить на тему  [ 1 сообщение ] 
Вы не можете начинать темы
Вы не можете отвечать на сообщения
Вы не можете редактировать свои сообщения
Вы не можете удалять свои сообщения