Правила форума

  • В этом разделе создание новых тем Запрещено.
  • Для создания новых тем пользуйтесь Корневым разделом DVD и HD фильмы.
Начать новую темуОтветить на тему  [ Сообщений: 3 ] 
Торрент файл
Размер: 4.85 GB • Зарегистрирован: 5 лет 8 месяцев • Статус: Проверено
Скачан: 15 раз • Желающих скачать: 0 • Поблагодарили: 5 раз
 Раздают: 0  |  0 KB/s  ]   Качают: 0  |  0 KB/s  ] 
 Полного источника не было 6 месяцев 
Сообщения
 Добавлено: 2011-03-23 23:39
Модератор
Аватара пользователя
Стаж: 8 лет 1 месяц
Сообщений: 1991
Спасибок: 129864
Лайков: 20
Эд Вуд / Ed Wood


«When it came to making bad movies, Ed Wood was the best.»



Изображение
Год выпуска: 1994
Страна: Изображение США
Жанр: драма, комедия, биография
Продолжительность:
02:01:19

Перевод: Оригинальный, Профессиональный (многоголосый, закадровый), Авторский (одноголосый)

Режиссер: Тим Бёртон
Сценарий: Рудольф Грэй, Скотт Александр, Ларри Карацевски
Продюсер: Тим Бёртон, Денис Ди Нови, Майкл Флинн, Майкл Леманн
Оператор: Стефан Чапски
Композитор: Рэй Энтони, Рэй Эванс, Джей Ливингстон, Петр Ильич Чайковский, Джон Аркелл

В ролях:
Джонни Депп (Ed Wood), Мартин Ландау (Bela Lugosi), Сара Джессика Паркер (Dolores Fuller), Патриция Аркетт (Kathy O'Hara), Джеффри Джонс (Criswell), Г.Д. Спрэдлин (Reverend Lemon), Винсент Д’Онофрио (Orson Welles), Билл Мюррэй (Bunny Breckinridge), Майк Старр (Georgie Weiss), Макс Каселла (Paul Marco), Брент Хинкли (Conrad Brooks), Лиза Мари (Vampira)

Описание: Фильм рассказывает истинную историю странной и пестрой жизни самой одиозной фигуры американского кино - Эда Вуда, признанного худшим режиссером за всю историю Голливуда!


Изображение: 7.825 (6 309)
Изображение: 8.10 (79 821)

MPAA: Изображение - Лицам до 17 лет обязательно присутствие взрослого

Доп. Информация

Бюджет: $18 000 000
Сборы в США: $5 887 457
Мировая премьера: 23 сентября 1994

Свернуть

Качество: HDTVRip 720p

Формат: Matroska
Видео: AVC; 1280x696 (16:9); 4652 Kbps; 25 fps; 0,209 bpp
Аудио №1: Английский; AC3; 384 Kbps; CBR; 6 ch
Аудио №2: Русский; AC3; 384 Kbps; CBR; 6 ch- одноголосый
Аудио №3: Русский; MPEG-1 Audio layer 3; 192 Kbps; CBR; 2 ch- многоголосый
Субтитры: English



Знаете ли Вы, что...
  • В 1980 году, через два года после смерти, Эд Вуд был признан «самым плохим режиссером» за всю историю Голливуда.
  • Картина Вуда «План 9 из дальнего космоса» 1959-го года считается худшим фильмом за всю историю кино.
  • Фильм поставлен по книге Рудольфа Грея «Кошмар экстаза» (Rudolph Grey, Nightmare of Ecstasy).
  • В фильме есть цитаты из картин Вуда «Глен или Гленда» («Glen or Glenda», 1953 г.), «Невеста монстра» («Bride of the Monster», 1955 г.), «План 9 из дальнего космоса» («Plan 9 from Outer Space», 1958 г.). Есть также фрагмент из раннего фильма с участием Белы Лугоши - «Белый Зомби» («White Zombie», 1932 г.) .
Свернуть
BDInfo

Общее
Уникальный идентификатор : 243646741405640636726999289565408773559 (0xB74CA7CFABA2F3F9BD339A874909C5B7)
Полное имя : E:\торрент\Ed_Vud_720p_[torrents.ru]\Ed.Wood.HDTVRip.720p.x264.MIF.mkv
Формат : Matroska
Размер файла : 4,85 Гбайт
Продолжительность : 2 ч. 1 м.
Общий поток : 5726 Кбит/сек
Дата кодирования : UTC 2007-11-24 15:31:11
Программа кодирования : mkvmerge v1.8.1 ('Little By Little') built on Nov 25 2006 16:14:30
Библиотека кодирования : libebml v0.7.7 + libmatroska v0.8.0

Видео
Идентификатор : 1
Формат : AVC
Формат/Информация : Advanced Video Codec
Профиль формата : High@L5.1
Параметр CABAC формата : Да
Параметр ReFrames формата : 9 кадры
Идентификатор кодека : V_MPEG4/ISO/AVC
Продолжительность : 2 ч. 1 м.
Битрейт : 4762 Кбит/сек
Ширина : 1280 пикс.
Высота : 696 пикс.
Соотношение сторон : 16:9
Частота кадров : 25,000 кадр/сек
Цветовое пространство : YUV
Подвыборка цветности : 4:2:0
Битовая глубина : 8 бит
Тип развёртки : Прогрессивная
Бит/(Пиксели*Кадры) : 0.214
Размер потока : 3,94 Гбайт (81%)
Заголовок : x264 Video Stream [LsE]
Библиотека кодирования : x264 core 54 svn-620M
Настройки программы : cabac=1 / ref=6 / deblock=1:-3:-2 / analyse=0x3:0x133 / me=hex / subme=6 / brdo=1 / mixed_ref=1 / me_range=16 / chroma_me=1 / trellis=1 / 8x8dct=1 / cqm=2 / deadzone=21,11 / chroma_qp_offset=0 / threads=3 / nr=0 / decimate=1 / mbaff=0 / bframes=3 / b_pyramid=1 / b_adapt=1 / b_bias=0 / direct=1 / wpredb=1 / bime=1 / keyint=250 / keyint_min=25 / scenecut=40(pre) / rc=2pass / bitrate=4762 / ratetol=0.5 / rceq='blurCplx^(1-qComp)' / qcomp=0.50 / qpmin=4 / qpmax=35 / qpstep=4 / cplxblur=20.0 / qblur=0.5 / ip_ratio=1.30 / pb_ratio=1.20
Язык : English

Аудио #1
Идентификатор : 2
Формат : AC-3
Формат/Информация : Audio Coding 3
Расширение режима : CM (complete main)
Идентификатор кодека : A_AC3
Продолжительность : 2 ч. 1 м.
Вид битрейта : Постоянный
Битрейт : 384 Кбит/сек
Канал(ы) : 6 канала(ов)
Расположение каналов : Front: L C R, Side: L R, LFE
Частота : 48,0 КГц
Битовая глубина : 16 бит
Метод сжатия : С потерями
Размер потока : 333 Мбайт (7%)
Заголовок : English Dolby Digital 5.1
Язык : English

Аудио #2
Идентификатор : 5
Формат : AC-3
Формат/Информация : Audio Coding 3
Расширение режима : CM (complete main)
Идентификатор кодека : A_AC3
Продолжительность : 2 ч. 1 м.
Вид битрейта : Постоянный
Битрейт : 384 Кбит/сек
Канал(ы) : 6 канала(ов)
Расположение каналов : Front: L C R, Side: L R, LFE
Частота : 48,0 КГц
Битовая глубина : 16 бит
Метод сжатия : С потерями
Размер потока : 333 Мбайт (7%)
Заголовок : Russian Dolby Digital 5.1 odnogolosiy by MIF

Аудио #3
Идентификатор : 4
Формат : MPEG Audio
Версия формата : Version 1
Профиль формата : Layer 3
Идентификатор кодека : A_MPEG/L3
Идентификатор кодека/Подсказка : MP3
Продолжительность : 2 ч. 1 м.
Вид битрейта : Постоянный
Битрейт : 192 Кбит/сек
Канал(ы) : 2 канала(ов)
Частота : 44,1 КГц
Метод сжатия : С потерями
Размер потока : 167 Мбайт (3%)
Заголовок : Russian MP3 mnogogolosiy by MIF

Текст
Идентификатор : 3
Формат : UTF-8
Идентификатор кодека : S_TEXT/UTF8
Идентификатор кодека/Информация : UTF-8 Plain Text
Заголовок : English
Язык : English
Свернуть
Скриншоты

Изображение
Изображение
Изображение
Изображение
Изображение
Свернуть

_________________
Себе ты можешь не качать, но раздавать другим обязан!
Не в сети
Профиль  
 Добавлено: 2011-04-28 14:59 (спустя 1 месяц 4 дня)
Аватара пользователя
Стаж: 8 лет 3 месяца
Сообщений: 247
Спасибок: 410
Лайков: 19
газууу....
Не в сети
Профиль  
 Добавлено: 2011-04-29 11:27 (спустя 20 часов)
Аватара пользователя
Стаж: 8 лет 3 месяца
Сообщений: 247
Спасибок: 410
Лайков: 19
ну и не надо, пойду с рутрекера качать :za_da_va_la:
Не в сети
Профиль  
Начать новую темуОтветить на тему  [ Сообщений: 3 ] 
Вы не можете начинать темы
Вы не можете отвечать на сообщения
Вы не можете редактировать свои сообщения
Вы не можете удалять свои сообщения