Правила форума

  • В этом разделе создание новых тем Запрещено.
  • Для создания новых тем пользуйтесь Корневым разделом DVD и HD фильмы.
Начать новую темуОтветить на тему  [ 1 сообщение ] 
Торрент файл
Размер: 8.98 GB • Зарегистрирован: 5 лет 3 месяца • Статус: Проверено
Скачан: 49 раз • Желающих скачать: 0 • Поблагодарили: 16 раз
 Раздают: 0  |  0 KB/s  ]   Качают: 0  |  0 KB/s  ] 
 Полного источника не было 12 часов 
Сообщения
 Добавлено: 2011-08-15 16:54
Top-releaser
Аватара пользователя
Стаж: 6 лет 7 месяцев
Сообщений: 2078
Спасибок: 3230
Лайков: 9
Эдвард Руки-ножницы / Edward Scissorhands

Изображение

Год выпуска: 1990
Страна: США
Жанр: Фэнтези, Драма
Продолжительность: 01:45:03
Перевод: Профессиональный (многоголосый, закадровый)
Режиссёр: Тим Бёртон
В ролях: Джонни Депп, Вайнона Райдер, Дайенн Уист, Энтони Майкл Холл, Кэти Бейкер, Роберт Оливери
Описание: Жил-был однажды в замке на вершине холма старый Изобретатель. Он изобрел много разных вещей, но самым лучшим его творением стал Эдвард, грустный молодой человек с очаровательной улыбкой. Под Рождество Изобретатель умер, оставив свой шедевр незавершенным - вместо рук у Эдварда были ... огромные острые ножницы. Так и жил бы одинокий Эдвард в пустом старом замке, если бы одна милая женщина не нашла его там и не привела в свою семью...

Раздача группы: Изображение

Качество: BDRip
Формат: MKV
Видео кодек: H.264
Аудио кодек: DTS
Видео: 1920x1040p, 23.976 fps, 10 mbps
Аудио #1: Русский DTS 5.1 768 kbps
Аудио #2: Английский DTS 3.1 1536 kbps (отдельным файлом)
Субтитры: Русские, английские

Скриншоты
Изображение

Изображение

Изображение

Изображение

Изображение
Свернуть

MediaInfo
General
Unique ID : 201018990091970117821595550352602194505 (0x973AD967D95AD7D187F497AC818A6249)
Complete name : I:\Эдвард Руки-ножницы\Edward Scissorhands.1080p\Edward Scissorhands.1080p.mkv
Format : Matroska
File size : 7.87 GiB
Duration : 1h 45mn
Overall bit rate : 10.7 Mbps
Encoded date : UTC 2008-10-13 17:56:44
Writing application : mkvmerge v2.2.0 ('Turn It On Again') built on Mar 4 2008 12:58:26
Writing library : libebml v0.7.7 + libmatroska v0.8.1

Video
ID : 1
Format : AVC
Format/Info : Advanced Video Codec
Format profile : High@L5.1
Format settings, CABAC : Yes
Format settings, ReFrames : 8 frames
Codec ID : V_MPEG4/ISO/AVC
Duration : 1h 45mn
Bit rate : 10 000 Kbps
Width : 1 920 pixels
Height : 1 040 pixels
Display aspect ratio : 16:9
Frame rate : 23.976 fps
Color space : YUV
Chroma subsampling : 4:2:0
Bit depth : 8 bits
Scan type : Progressive
Bits/(Pixel*Frame) : 0.209
Stream size : 7.16 GiB (91%)
Title : x264 1080p
Writing library : x264 core 56 svn-676M
Encoding settings : cabac=1 / ref=5 / deblock=1:-3:-3 / analyse=0x3:0x113 / me=umh / subme=7 / brdo=1 / mixed_ref=1 / me_range=16 / chroma_me=1 / trellis=1 / 8x8dct=1 / cqm=2 / deadzone=21,11 / chroma_qp_offset=0 / threads=6 / nr=0 / decimate=1 / mbaff=0 / bframes=3 / b_pyramid=1 / b_adapt=1 / b_bias=0 / direct=3 / wpredb=1 / bime=1 / keyint=250 / keyint_min=25 / scenecut=40(pre) / rc=2pass / bitrate=10000 / ratetol=1.0 / rceq='blurCplx^(1-qComp)' / qcomp=0.60 / qpmin=10 / qpmax=51 / qpstep=4 / cplxblur=20.0 / qblur=0.5 / ip_ratio=1.40 / pb_ratio=1.30
Language : English

Audio
ID : 2
Format : DTS
Format/Info : Digital Theater Systems
Codec ID : A_DTS
Duration : 1h 45mn
Bit rate mode : Constant
Bit rate : 755 Kbps
Channel(s) : 6 channels
Channel positions : Front: L C R, Side: L R, LFE
Sampling rate : 48.0 KHz
Bit depth : 16 bits
Compression mode : Lossy
Delay relative to video : 22ms
Stream size : 567 MiB (7%)
Title : DTS 768 kbps
Language : Russian

Text #1
ID : 3
Format : UTF-8
Codec ID : S_TEXT/UTF8
Codec ID/Info : UTF-8 Plain Text
Language : Russian

Text #2
ID : 4
Format : UTF-8
Codec ID : S_TEXT/UTF8
Codec ID/Info : UTF-8 Plain Text
Language : English
Свернуть
Не в сети
Профиль  
Начать новую темуОтветить на тему  [ 1 сообщение ] 
Вы не можете начинать темы
Вы не можете отвечать на сообщения
Вы не можете редактировать свои сообщения
Вы не можете удалять свои сообщения