Правила форума

  • В этом разделе создание новых тем Запрещено.
  • Для создания новых тем пользуйтесь Корневым разделом DVD и HD фильмы.
Начать новую темуОтветить на тему  [ 1 сообщение ] 
Торрент файл
Размер: 3.11 GB • Зарегистрирован: 1 год 2 месяца • Статус: Проверено
Скачан: 22 раза • Желающих скачать: 0 • Поблагодарили: 7 раз
 Раздают: 0  |  0 KB/s  ]   Качают: 0  |  0 KB/s  ] 
 Полного источника не было 4 часа 
Сообщения
 Добавлено: 2015-09-23 15:51
RG-ELEKTRO
Аватара пользователя
Стаж: 2 года 3 месяца
Сообщений: 7928
Спасибок: 53784
Лайков: 3304
Эффект Лазаря / The Lazarus Effect


Изображение


Страна: США
Студия: Blumhouse Productions, Chapter One Films, Lionsgate
Год выпуска: 2015
Жанр: Ужасы, триллер
Продолжительность: 01:19:37
Перевод: Дублированный [iTunes]

Режиссер: Дэвид Гелб

В ролях: Марк Дюпласс, Оливия Уайлд, Дональд Гловер, Эван Питерс, Сара Болгер, Рэй Уайз, Скотт Шелдон, Эмили Келавос, Джеймс Эрл, Эми Акино, Шон Т. Кришнан, Атор Тамрас, Като, Лииса Коэн, Дженнифер Флойд, Бруно Джойелло, Скотт Л. Трегер

О фильме:
Группа студентов разрабатывает так называемую сыворотку "Лазаря", которая может воскрешать из мёртвых. Первый эксперимент они провели на мёртвой собаке и всеобщему удивлению сыворотка сработала. Однако что то пошло не по плану и собака умерла. Ребята решили провести над неё ещё один эксперимент, во время которого аспирантка Зои получила разряд током и умерла. В отчаянии ей вводят сыворотку "Лазаря". Девушка ожила и с ней начали происходить непонятные вещи, девушка уже не такая какой была до смерти.
Изображение Изображение Изображение
Формат: MKV
Кодек: MPEG-4 AVC
Качество: BDRip 720p
Видео: MPEG-4 AVC, 4225 Кбит/с, 1280x534, 23,976 fps
Звук: Русский (AC3, 384 kb/s (6 ch), 48 kHz), английский (AC3, 640 kb/s (6 ch), 48 kHz)
Субтитры: Rus, Eng
"MI"
Format : Matroska
Format version : Version 4 / Version 2
File size : 3.11 GiB
Duration : 1h 23mn
Overall bit rate : 5 356 Kbps
Movie name : Эффект Лазаря. (Tonik)
Encoded date : UTC 2015-09-23 11:12:02
Writing application : mkvmerge v7.1.0 ('Good Love') 64bit built on Jul 27 2014 13:06:55
Writing library : libebml v1.3.0 + libmatroska v1.4.1
_STATISTICS_WRITING_APP : mkvmerge v7.1.0 ('Good Love') 64bit built on Jul 27 2014 13:06:55
_STATISTICS_WRITING_DATE_UTC : 2015-09-23 11:12:02
_STATISTICS_TAGS : BPS DURATION NUMBER_OF_FRAMES NUMBER_OF_BYTES
DURATION : 01:16:22.259000000
NUMBER_OF_FRAMES : 860
NUMBER_OF_BYTES : 49396

Video
ID : 1
Format : AVC
Format/Info : Advanced Video Codec
Format profile : High@L4.1
Format settings, CABAC : Yes
Format settings, ReFrames : 12 frames
Codec ID : V_MPEG4/ISO/AVC
Duration : 1h 23mn
Bit rate : 4 225 Kbps
Width : 1 280 pixels
Height : 534 pixels
Display aspect ratio : 2.40:1
Frame rate mode : Constant
Frame rate : 23.976 fps
Color space : YUV
Chroma subsampling : 4:2:0
Bit depth : 8 bits
Scan type : Progressive
Bits/(Pixel*Frame) : 0.258
Stream size : 2.46 GiB (79%)
Writing library : x264 core 142 r2431+42 c69a006 tMod [8-bit@4:2:0 X86_64]
Encoding settings : cabac=1 / ref=12 / deblock=1:-3:-3 / analyse=0x3:0x113 / me=umh / subme=11 / psy=1 / fade_compensate=0.00 / psy_rd=1.00:0.00 / mixed_ref=1 / me_range=32 / chroma_me=1 / trellis=2 / 8x8dct=1 / cqm=0 / deadzone=21,11 / fast_pskip=0 / chroma_qp_offset=-4 / threads=12 / lookahead_threads=2 / sliced_threads=0 / nr=0 / decimate=0 / interlaced=0 / bluray_compat=0 / constrained_intra=0 / fgo=0 / bframes=7 / b_pyramid=2 / b_adapt=2 / b_bias=0 / direct=3 / weightb=1 / open_gop=0 / weightp=2 / keyint=250 / keyint_min=23 / scenecut=40 / intra_refresh=0 / rc_lookahead=60 / rc=crf / mbtree=0 / crf=15.0000 / qcomp=0.70 / qpmin=0:0:0 / qpmax=69:69:69 / qpstep=4 / vbv_maxrate=62500 / vbv_bufsize=78125 / crf_max=0.0 / nal_hrd=none / filler=0 / ip_ratio=1.30 / pb_ratio=1.30 / aq=4:0.80 / aq-sensitivity=10.00 / aq-factor=1.00:1.00:1.00 / aq2=0 / aq3=0
Language : English
Default : Yes
Forced : No
_STATISTICS_WRITING_APP : mkvmerge v7.1.0 ('Good Love') 64bit built on Jul 27 2014 13:06:55
_STATISTICS_WRITING_DATE_UTC : 2015-09-23 11:12:02
_STATISTICS_TAGS : BPS DURATION NUMBER_OF_FRAMES NUMBER_OF_BYTES
DURATION : 01:23:11.987000000
NUMBER_OF_FRAMES : 119688
NUMBER_OF_BYTES : 2701696955

Audio #1
ID : 2
Format : AC-3
Format/Info : Audio Coding 3
Mode extension : CM (complete main)
Format settings, Endianness : Big
Codec ID : A_AC3
Duration : 1h 23mn
Bit rate mode : Constant
Bit rate : 384 Kbps
Channel(s) : 6 channels
Channel positions : Front: L C R, Side: L R, LFE
Sampling rate : 48.0 KHz
Bit depth : 16 bits
Compression mode : Lossy
Stream size : 229 MiB (7%)
Language : Russian
Default : Yes
Forced : No

Audio #2
ID : 3
Format : AC-3
Format/Info : Audio Coding 3
Mode extension : CM (complete main)
Format settings, Endianness : Big
Codec ID : A_AC3
Duration : 1h 23mn
Bit rate mode : Constant
Bit rate : 640 Kbps
Channel(s) : 6 channels
Channel positions : Front: L C R, Side: L R, LFE
Sampling rate : 48.0 KHz
Bit depth : 16 bits
Compression mode : Lossy
Stream size : 381 MiB (12%)
Language : English
Default : No
Forced : No

Text #1
ID : 4
Format : UTF-8
Codec ID : S_TEXT/UTF8
Codec ID/Info : UTF-8 Plain Text
Language : Russian
Default : No
Forced : No

Text #2
ID : 5
Format : UTF-8
Codec ID : S_TEXT/UTF8
Codec ID/Info : UTF-8 Plain Text
Language : English
Default : No
Forced : No

Text #3
ID : 6
Format : UTF-8
Codec ID : S_TEXT/UTF8
Codec ID/Info : UTF-8 Plain Text
Title : SDH
Language : English
Default : No
Forced : No

Menu
00:00:00.000 : en:00:00:00.000
00:03:07.771 : en:00:03:07.771
00:05:33.959 : en:00:05:33.959
00:09:33.948 : en:00:09:33.948
00:12:23.868 : en:00:12:23.868
00:15:19.043 : en:00:15:19.043
00:18:05.001 : en:00:18:05.001
00:20:52.751 : en:00:20:52.751
00:24:48.779 : en:00:24:48.779
00:29:18.632 : en:00:29:18.632
00:31:29.638 : en:00:31:29.638
00:35:53.985 : en:00:35:53.985
00:38:02.697 : en:00:38:02.697
00:41:47.171 : en:00:41:47.171
00:44:04.809 : en:00:44:04.809
00:46:36.002 : en:00:46:36.002
00:49:43.272 : en:00:49:43.272
00:53:35.462 : en:00:53:35.462
00:56:15.330 : en:00:56:15.330
00:58:58.535 : en:00:58:58.535
01:03:56.207 : en:01:03:56.207
01:08:36.446 : en:01:08:36.446
01:11:25.990 : en:01:11:25.990
01:16:08.105 : en:01:16:08.105

Свернуть

"Скриншоты"
Изображение
Изображение
Изображение

Свернуть

Изображение


Изображение Изображение
_________________
Не ищите меня в "ВКонтакте", в "Одноклассниках" меня нет - я на трекерах сижу!
Не в сети
Профиль  
Начать новую темуОтветить на тему  [ 1 сообщение ] 
Вы не можете начинать темы
Вы не можете отвечать на сообщения
Вы не можете редактировать свои сообщения
Вы не можете удалять свои сообщения