Правила форума

  • В этом разделе создание новых тем Запрещено.
  • Для создания новых тем пользуйтесь Корневым разделом DVD и HD фильмы.
Начать новую темуОтветить на тему  [ 1 сообщение ] 
Торрент файл
Размер: 31.01 GB • Зарегистрирован: 3 года 9 месяцев • Статус: Проверено
Скачан: 21 раз • Желающих скачать: 0 • Поблагодарили: 13 раз
 Раздают: 1  |  0 KB/s  ]   Качают: 0  |  0 KB/s  ] 
Сообщения
 Добавлено: 2013-02-22 06:04
Модератор релиз-группы
Аватара пользователя
Стаж: 6 лет 5 месяцев
Возраст: 25
Сообщений: 622
Спасибок: 10258
Лайков: 7
Экипаж / Flight

Изображение


Год выпуска: 2012
Страна: США
Жанр: Драма
Продолжительность: 02:18:35
Перевод: Профессиональный (полное дублирование)

Режиссёр: Роберт Земекис
В ролях: Дензел Вашингтон, Келли Райлли, Брюс Гринвуд, Дон Чидл, Джон Гудмен, Тамара Тюни, Брайан Джерати, Мелисса Лео, Надин Веласкес, Майкл Бисли, Гарсель Бове, Рави Капур
Описание: Опытный пилот Уип Вайтекер чудом избегает крушения самолета, и, совершив аварийную посадку, сохраняет жизни практически всех пассажиров. Уипа чествуют, как героя, но чем больше появляется подробностей о катастрофе, тем больше вопросов возникает: что же на самом деле произошло на борту самолёта…

Раздача группы: Изображение
Качество: Blu-Ray Remux (1080p)
Видео: MPEG-4 AVC, 25.4 Мбит/с, 1920x1080, 23.976 кадр/с
Аудио: Русский (AC3, 6 ch, 448 Кбит/с), русский (DTS, 6 ch, 1510 Кбит/с), английский (DTS-HD МА, 6 ch, 3382 Кбит/с)
Размер: 31.01 ГБ
Перевод: Дублированный, профессиональный двухголосый, профессиональный одноголосый
Субтитры: Русские, английские, румынские
BDInfpo
Format : Matroska
File size : 31.0 GiB
Duration : 2h 18mn
Overall bit rate : 32.0 Mbps
Movie name : Release for TMD by AlderShot
Encoded date : UTC 2013-02-21 14:49:13
Writing application : mkvmerge v4.9.1 ('Ich will') built on Jul 11 2011 23:53:15
Writing library : libebml v1.2.1 + libmatroska v1.1.1

Video
ID : 1
Format : AVC
Format/Info : Advanced Video Codec
Format profile : High@L4.1
Format settings, CABAC : Yes
Format settings, ReFrames : 4 frames
Format settings, GOP : M=2, N=25
Codec ID : V_MPEG4/ISO/AVC
Duration : 2h 18mn
Bit rate mode : Variable
Bit rate : 26.3 Mbps
Maximum bit rate : 32.0 Mbps
Width : 1 920 pixels
Height : 1 080 pixels
Display aspect ratio : 16:9
Frame rate : 23.976 fps
Color space : YUV
Chroma subsampling : 4:2:0
Bit depth : 8 bits
Scan type : Progressive
Bits/(Pixel*Frame) : 0.530
Stream size : 25.5 GiB (82%)
Title : PublicHD
Language : English

Audio #1
ID : 2
Format : AC-3
Format/Info : Audio Coding 3
Mode extension : CM (complete main)
Codec ID : A_AC3
Duration : 2h 18mn
Bit rate mode : Constant
Bit rate : 448 Kbps
Channel(s) : 6 channels
Channel positions : Front: L C R, Side: L R, LFE
Sampling rate : 48.0 KHz
Bit depth : 16 bits
Compression mode : Lossy
Stream size : 444 MiB (1%)
Language : Russian

Audio #2
ID : 3
Format : DTS
Format/Info : Digital Theater Systems
Codec ID : A_DTS
Duration : 2h 18mn
Bit rate mode : Constant
Bit rate : 1 510 Kbps
Channel(s) : 6 channels
Channel positions : Front: L C R, Side: L R, LFE
Sampling rate : 48.0 KHz
Bit depth : 24 bits
Compression mode : Lossy
Stream size : 1.46 GiB (5%)
Title : DTS 5.1 @ 1510 kbps - DVO, Omikron
Language : Russian

Audio #3
ID : 4
Format : DTS
Format/Info : Digital Theater Systems
Format profile : MA / Core
Codec ID : A_DTS
Duration : 2h 18mn
Bit rate mode : Variable
Bit rate : 1 576 Kbps / 1 510 Kbps
Channel(s) : 6 channels
Channel positions : Front: L C R, Side: L R, LFE
Sampling rate : 48.0 KHz
Bit depth : 24 bits
Compression mode : Lossless / Lossy
Language : English

Audio #4
ID : 5
Format : DTS
Format/Info : Digital Theater Systems
Codec ID : A_DTS
Duration : 2h 18mn
Bit rate mode : Constant
Bit rate : 1 510 Kbps
Channel(s) : 6 channels
Channel positions : Front: L C R, Side: L R, LFE
Sampling rate : 48.0 KHz
Bit depth : 24 bits
Compression mode : Lossy
Delay relative to video : 11ms
Stream size : 1.46 GiB (5%)
Title : DTS 5.1 @ 1510 kbps - AVO, Dasevich
Language : Russian

Text #1
ID : 6
Format : UTF-8
Codec ID : S_TEXT/UTF8
Codec ID/Info : UTF-8 Plain Text
Language : Romanian

Text #2
ID : 7
Format : UTF-8
Codec ID : S_TEXT/UTF8
Codec ID/Info : UTF-8 Plain Text
Title : Groby
Language : Russian

Text #3
ID : 8
Format : UTF-8
Codec ID : S_TEXT/UTF8
Codec ID/Info : UTF-8 Plain Text
Language : English

Text #4
ID : 9
Format : UTF-8
Codec ID : S_TEXT/UTF8
Codec ID/Info : UTF-8 Plain Text
Title : SDH
Language : English

Text #5
ID : 10
Format : UTF-8
Codec ID : S_TEXT/UTF8
Codec ID/Info : UTF-8 Plain Text
Title : SDH Colored
Language : English

Menu
00:00:00.000 : en:
00:09:32.571 : en:
00:17:06.984 : en:
00:26:16.782 : en:
00:34:40.203 : en:
00:45:42.614 : en:
00:52:01.493 : en:
01:00:46.768 : en:
01:10:10.080 : en:
01:19:30.807 : en:
01:26:54.542 : en:
01:37:05.236 : en:
01:48:54.152 : en:
01:55:20.121 : en:
02:11:54.740 : en:
Свернуть
Скриншоты
Изображение
Изображение
Изображение
Изображение
Изображение
Изображение
Свернуть
_________________
Изображение
Не в сети
Профиль  
Начать новую темуОтветить на тему  [ 1 сообщение ] 
Вы не можете начинать темы
Вы не можете отвечать на сообщения
Вы не можете редактировать свои сообщения
Вы не можете удалять свои сообщения