Правила форума

  • В этом разделе создание новых тем Запрещено.
  • Для создания новых тем пользуйтесь Корневым разделом DVD и HD фильмы.
Начать новую темуОтветить на тему  [ Сообщений: 2 ] 
Торрент файл
Размер: 9.76 GB • Зарегистрирован: 3 года 5 месяцев • Статус: Проверено
Скачан: 138 раз • Желающих скачать: 0 • Поблагодарили: 42 раза
 Раздают: 0  |  0 KB/s  ]   Качают: 0  |  0 KB/s  ] 
 Полного источника не было 3 дня 
Сообщения
 Добавлено: 2013-07-02 15:51
Аватара пользователя
Стаж: 9 лет 1 месяц
Сообщений: 7981
Спасибок: 122207
Лайков: 1191
Экспат / The Expatriate

«Чужой среди своих»

Изображение


Год выпуска: 2012
Страна: Изображение Бельгия Изображение Канада
Жанр: боевик, триллер
Продолжительность: 01:40:22
Субтитры: Румынские
Перевод: Профессиональный (полное дублирование) [Лицензия]


Режиссер: Филипп Штёльцль
Сценарий: Араш Амель
Продюсер: Клод Леже, Адриан Политковски, Карл Ричардс
Оператор: Коля Брандт
Композитор: Джефф Дэнна

В ролях: Аарон Экхарт, Ольга Куриленко, Лиана Либерато, Гаррик Хэгон, Нил Напье, Александр Фелинг, Кейт Линдер, Эрик Годон, Дэвид Барк-Джоунс, Симона-Элиза Джирард

Описание: Агент ЦРУ бросает работу, чтобы наладить отношения с дочерью, но вынужден защитить ее от своих же коллег, которые намерены убить ее по приказу начальства.

Изображение Изображение

Раздача группы: Изображение

Качество: BDRip (1080p)
Формат: Matroska
Видео: MPEG-4 AVC, 10.9 Мбит/с, 1920x814
Аудио №1: Русский (DTS, 48,0 КГц, 6 ch, 1510 Кбит/c)
Аудио №2: Английский (DTS, 48,0 КГц, 6 ch, 1510 Кбит/c)

MediaInfo
Общее
Уникальный идентификатор : 206342467222432261693929741093963541600 (0x9B3C1D17A8728DA099148009119BAC60)
Полное имя : C:\Фильмы\The.Expatriate.2012.BluRay.1080p.DTS.x264.Rus.Eng.Subs.R.G.Daredevil.mkv
Формат : Matroska
Версия формата : Version 2
Размер файла : 9,76 Гбайт
Продолжительность : 1 ч. 40 м.
Общий поток : 13,9 Мбит/сек
Дата кодирования : UTC 2013-06-26 01:58:33
Программа кодирования : mkvmerge v5.4.0 ('Piper') built on Mar 10 2012 13:34:39
Библиотека кодирования : libebml v1.2.3 + libmatroska v1.3.0

Видео
Идентификатор : 1
Формат : AVC
Формат/Информация : Advanced Video Codec
Профиль формата : High@L4.1
Параметр CABAC формата : Да
Параметр ReFrames формата : 5 кадров
Идентификатор кодека : V_MPEG4/ISO/AVC
Продолжительность : 1 ч. 40 м.
Битрейт : 10,9 Мбит/сек
Ширина : 1920 пикселей
Высота : 814 пикселей
Соотношение сторон : 2,35:1
Режим частоты кадров : Постоянный
Частота кадров : 25,000 кадров/сек
Цветовое пространство : YUV
Субдискретизация насыщенности : 4:2:0
Битовая глубина : 8 бит
Тип развёртки : Прогрессивная
Бит/(Пиксели*Кадры) : 0.279
Размер потока : 7,45 Гбайт (76%)
Заголовок : The.Expatriate.2012
Библиотека кодирования : x264 core 125 r2208 d9d2288
Настройки программы : cabac=1 / ref=5 / deblock=1:-3:-3 / analyse=0x3:0x113 / me=umh / subme=10 / psy=1 / psy_rd=1.00:0.05 / mixed_ref=1 / me_range=32 / chroma_me=1 / trellis=2 / 8x8dct=1 / cqm=0 / deadzone=21,11 / fast_pskip=0 / chroma_qp_offset=-2 / threads=8 / lookahead_threads=1 / sliced_threads=0 / nr=0 / decimate=1 / interlaced=0 / bluray_compat=0 / constrained_intra=0 / bframes=5 / b_pyramid=2 / b_adapt=2 / b_bias=0 / direct=3 / weightb=1 / open_gop=0 / weightp=2 / keyint=250 / keyint_min=25 / scenecut=40 / intra_refresh=0 / rc=2pass / mbtree=0 / bitrate=10910 / ratetol=1.0 / qcomp=0.70 / qpmin=0 / qpmax=69 / qpstep=4 / cplxblur=20.0 / qblur=0.5 / ip_ratio=1.40 / pb_ratio=1.30 / aq=2:1.00
Язык : English
Default : Да
Forced : Нет

Аудио #1
Идентификатор : 2
Формат : DTS
Формат/Информация : Digital Theater Systems
Режим : 16
Параметр Endianness формата : Big
Идентификатор кодека : A_DTS
Продолжительность : 1 ч. 40 м.
Вид битрейта : Постоянный
Битрейт : 1510 Кбит/сек
Каналы : 6 каналов
Расположение каналов : Front: L C R, Side: L R, LFE
Частота : 48,0 КГц
Битовая глубина : 24 бит
Метод сжатия : С потерями
Размер потока : 1,06 Гбайт (11%)
Заголовок : DTS-CORE 1536K
Язык : Russian
Default : Да
Forced : Нет

Аудио #2
Идентификатор : 3
Формат : DTS
Формат/Информация : Digital Theater Systems
Режим : 16
Параметр Endianness формата : Big
Идентификатор кодека : A_DTS
Продолжительность : 1 ч. 40 м.
Вид битрейта : Постоянный
Битрейт : 1509 Кбит/сек
Каналы : 6 каналов
Расположение каналов : Front: L C R, Side: L R, LFE
Частота : 48,0 КГц
Битовая глубина : 24 бит
Метод сжатия : С потерями
Размер потока : 1,06 Гбайт (11%)
Заголовок : DTS-CORE 1536K
Язык : English
Default : Нет
Forced : Нет

Текст
Идентификатор : 4
Формат : UTF-8
Идентификатор кодека : S_TEXT/UTF8
Идентификатор кодека/Информация : UTF-8 Plain Text
Заголовок : Romanian
Язык : Romanian
Default : Нет
Forced : Нет
Свернуть
Знаете ли вы, что...
В фильме офицер полиции на центральном вокзале Антверпена одет в пуленепробиваемый жилет с надписью «ZPZ 5339». Надпись является кодом полицейской зоны в Брюсселе, а не в Антверпене.

Все уличные сцены и сцены в трамвае были сняты в Брюсселе, несмотря на то, что некоторые события фильма разворачиваются в Антверпене. В фильме дорожные знаки на двух языках, а трамваи из «MIVB/STIB» («общество межкоммунного транспорта Брюсселя») — организация-оператор общественного транспорта Брюсселя.

Свернуть
Скриншоты
Изображение
Изображение
Изображение
Изображение
Свернуть
Не в сети
Профиль  
 Добавлено: 2014-01-17 19:40 (спустя 6 месяцев)
Аватара пользователя
Стаж: 8 лет 3 месяца
Сообщений: 67
Хороший, фильмец
Не в сети
Профиль  
Начать новую темуОтветить на тему  [ Сообщений: 2 ] 
Вы не можете начинать темы
Вы не можете отвечать на сообщения
Вы не можете редактировать свои сообщения
Вы не можете удалять свои сообщения