Правила форума

  • В этом разделе создание новых тем Запрещено.
  • Для создания новых тем пользуйтесь Корневым разделом DVD и HD фильмы.
Начать новую темуОтветить на тему  [ Сообщений: 5 ] 
Торрент файл
Размер: 9.59 GB • Зарегистрирован: 3 года 8 месяцев • Статус: Проверено
Скачан: 140 раз • Желающих скачать: 0 • Поблагодарили: 32 раза
 Раздают: 1  |  0 KB/s  ]   Качают: 0  |  0 KB/s  ] 
Сообщения
 Добавлено: 2013-03-15 00:28
Аватара пользователя
Стаж: 9 лет 1 месяц
Сообщений: 7977
Спасибок: 122197
Лайков: 1191
Эксперимент «Повиновение» / Compliance

«Ты должен подчиняться»

Изображение


Год выпуска: 2012
Страна: Изображение США
Жанр: триллер, драма, криминал
Продолжительность: 01:29:46
Субтитры: Русские, английские, испанские
Перевод: Профессиональный (многоголосый, закадровый) [Лицензия]


Режиссёр: Крэйг Зобель
Сценарист: Крэйг Зобель
Продюсер: Тайлер Дэвидсон, Софи Лин, Лиза Мускат
Оператор: Адам Стоун
Композитор: Хезер МакИнтош

В ролях: Энн Дауд, Дрима Уокер, Пэт Хили, Билл Кэмп, Филип Эттинджер, Джеймс МакКэффри, Мэтт Сервитто, Эшли Эткинсон, Никия Мэтис, Ральф Йован Родригез

Описание: В фастфудный ресторанчик звонит некто, представившийся офицером полиции, и сообщает, что молодая кассирша обвиняется в краже. Тетка-менеджер запирает подозреваемую в подсобке, обыскивает ее, принуждает раздеться — и все это по указанию голоса, чей авторитет ни разу не подвергается сомнению.

Изображение Изображение

Релиз группы: Изображение Раздача группы: Изображение

Качество: BDRip (1080p)
Формат: Matroska
Видео: MPEG-4 AVC, 13.1 Мбит/с, 1920x804
Аудио №1: Русский (AC3, 48,0 КГц, 6 ch, 384 Кбит/с)
Аудио №2: Английский (DTS, 48,0 КГц, 6 ch, 1509 Кбит/c)

MediaInfo
Общее
Уникальный идентификатор : 231868701101807468414574720269571654389 (0xAE70499718F3FC13AB423E35484102F5)
Полное имя : I:\Jeksperiment.Povinovenie.2012.P.BDRip.1080p.R.G.Daredevil.mkv
Формат : Matroska
Версия формата : Version 2
Размер файла : 9,59 Гбайт
Продолжительность : 1 ч. 29 м.
Общий поток : 15,3 Мбит/сек
Название фильма : IRONCLUB
Дата кодирования : UTC 2013-03-14 17:41:27
Программа кодирования : mkvmerge v5.2.0 ('I can't explain') built on Dec 18 2011 18:12:03
Библиотека кодирования : libebml v1.2.3 + libmatroska v1.3.0

Видео
Идентификатор : 1
Формат : AVC
Формат/Информация : Advanced Video Codec
Профиль формата : High@L4.1
Параметр CABAC формата : Да
Параметр ReFrames формата : 5 кадров
Идентификатор кодека : V_MPEG4/ISO/AVC
Продолжительность : 1 ч. 29 м.
Битрейт : 13,1 Мбит/сек
Ширина : 1920 пикселей
Высота : 804 пикселя
Соотношение сторон : 2,40:1
Режим частоты кадров : Постоянный
Частота кадров : 23,976 кадра/сек
Цветовое пространство : YUV
Субдискретизация насыщенности : 4:2:0
Битовая глубина : 8 бит
Тип развёртки : Прогрессивная
Бит/(Пиксели*Кадры) : 0.354
Размер потока : 8,22 Гбайт (86%)
Библиотека кодирования : x264 core 129 r2230kMod 1cffe9f
Настройки программы : cabac=1 / ref=5 / deblock=1:-3:-3 / analyse=0x3:0x113 / me=umh / subme=9 / psy=1 / fade_compensate=0.00 / psy_rd=1.05:0.00 / mixed_ref=1 / me_range=16 / chroma_me=1 / trellis=2 / 8x8dct=1 / cqm=0 / deadzone=21,11 / fast_pskip=0 / chroma_qp_offset=-2 / threads=6 / lookahead_threads=1 / sliced_threads=0 / nr=0 / decimate=0 / interlaced=0 / bluray_compat=0 / constrained_intra=0 / bframes=8 / b_pyramid=2 / b_adapt=2 / b_bias=0 / direct=3 / weightb=1 / open_gop=0 / weightp=2 / keyint=250 / keyint_min=23 / scenecut=40 / intra_refresh=0 / rc_lookahead=40 / rc=crf / mbtree=1 / crf=18.0000 / qcomp=0.80 / qpmin=0 / qpmax=69 / qpstep=4 / ip_ratio=1.30 / aq=1:0.80
Язык : English
Default : Да
Forced : Нет

Аудио #1
Идентификатор : 2
Формат : AC-3
Формат/Информация : Audio Coding 3
Расширение режима : CM (complete main)
Параметр Endianness формата : Big
Идентификатор кодека : A_AC3
Продолжительность : 1 ч. 29 м.
Вид битрейта : Постоянный
Битрейт : 384 Кбит/сек
Каналы : 6 каналов
Расположение каналов : Front: L C R, Side: L R, LFE
Частота : 48,0 КГц
Битовая глубина : 16 бит
Метод сжатия : С потерями
Размер потока : 247 Мбайт (3%)
Заголовок : R5
Язык : Russian
Default : Нет
Forced : Да

Аудио #2
Идентификатор : 3
Формат : DTS
Формат/Информация : Digital Theater Systems
Режим : 16
Параметр Endianness формата : Big
Идентификатор кодека : A_DTS
Продолжительность : 1 ч. 29 м.
Вид битрейта : Постоянный
Битрейт : 1509 Кбит/сек
Каналы : 6 каналов
Расположение каналов : Front: L C R, Side: L R, LFE
Частота : 48,0 КГц
Битовая глубина : 24 бит
Метод сжатия : С потерями
Размер потока : 969 Мбайт (10%)
Язык : English
Default : Да
Forced : Нет

Текст #1
Идентификатор : 4
Формат : UTF-8
Идентификатор кодека : S_TEXT/UTF8
Идентификатор кодека/Информация : UTF-8 Plain Text
Заголовок : Full R5
Язык : Russian
Default : Нет
Forced : Нет

Текст #2
Идентификатор : 5
Формат : UTF-8
Идентификатор кодека : S_TEXT/UTF8
Идентификатор кодека/Информация : UTF-8 Plain Text
Заголовок : Full
Язык : English
Default : Да
Forced : Нет

Текст #3
Идентификатор : 6
Формат : UTF-8
Идентификатор кодека : S_TEXT/UTF8
Идентификатор кодека/Информация : UTF-8 Plain Text
Заголовок : SDH
Язык : English
Default : Нет
Forced : Нет

Текст #4
Идентификатор : 7
Формат : UTF-8
Идентификатор кодека : S_TEXT/UTF8
Идентификатор кодека/Информация : UTF-8 Plain Text
Язык : Spanish
Default : Нет
Forced : Нет

Меню
00:00:00.000 : en:00:00:00.000
00:08:29.175 : en:00:08:29.175
00:15:38.855 : en:00:15:38.855
00:25:01.041 : en:00:25:01.041
00:32:46.715 : en:00:32:46.715
00:38:00.487 : en:00:38:00.487
00:45:59.048 : en:00:45:59.048
00:52:18.719 : en:00:52:18.719
00:59:45.999 : en:00:59:45.999
01:07:57.031 : en:01:07:57.031
01:15:14.301 : en:01:15:14.301
01:26:35.565 : en:01:26:35.565
Свернуть
Скриншоты
Изображение
Изображение
Изображение
Изображение
Свернуть
В сети
Профиль  
 Добавлено: 2013-03-17 15:25 (спустя 2 дня 14 часов)
Стаж: 8 лет 10 месяцев
Сообщений: 25
Лайков: 4
Никакой интриги. Всё в описании. Скушно.
Не в сети
Профиль  
 Добавлено: 2013-03-17 16:40 (спустя 1 час 14 минут)
Аватара пользователя
Стаж: 8 лет 9 месяцев
Сообщений: 1170
Спасибок: 1294
Лайков: 7
разучились писать описания
Не в сети
Профиль  
 Добавлено: 2013-03-22 08:16 (спустя 4 дня)
Стаж: 5 лет 1 месяц
Сообщений: 9
Фильм бредовый
Не в сети
Профиль  
 Добавлено: 2013-03-26 18:17 (спустя 4 дня)
Аватара пользователя
Стаж: 5 лет 8 месяцев
Возраст: 25
Сообщений: 57
Спасибок: 14
Лайков: 2
Фильм не просто бредовый, а просто пи#дец! В стране, где без адвоката и шага не сделают, повестись на такое... И ни у одного не возникло сомнения в правильности своих действий. Задорнов правильно говорит. Мужик - король пранкинга. Фильм - шлак. Но, всё равно, спасибо.
Не в сети
Профиль  
Начать новую темуОтветить на тему  [ Сообщений: 5 ] 
Вы не можете начинать темы
Вы не можете отвечать на сообщения
Вы не можете редактировать свои сообщения
Вы не можете удалять свои сообщения