Правила форума

  • В этом разделе создание новых тем Запрещено.
  • Для создания новых тем пользуйтесь Корневым разделом DVD и HD фильмы.
Начать новую темуОтветить на тему  [ 1 сообщение ] 
Торрент файл
Размер: 20.85 GB • Зарегистрирован: 4 года 3 месяца • Статус: Проверено
Скачан: 17 раз • Желающих скачать: 0 • Поблагодарили: 6 раз
 Раздают: 0  |  0 KB/s  ]   Качают: 0  |  0 KB/s  ] 
 Полного источника не было 3 года 2 месяца 
Сообщения
 Добавлено: 2012-09-02 14:33
Аватара пользователя
Стаж: 4 года 3 месяца
Сообщений: 1
Спасибок: 6

Эксперимент / The Experiment

«Точка кипения есть у каждого»


Изображение

Русское название: Эксперимент
Оригинельное название: The Experiment
Год выхода: 2010
Жанр: Триллер, драма
Выпущено: США

Режиссёр: Пол Шойринг
Сценарист: Пол Шойринг, Кристоф Дарнштэдт, Дон Болингер
Продюсер: Марти Адельштейн, Уильям Дж. Джонсон, Мэгги Монтейт
Оператор: Эми Винсент
Композитор: Грэм Ревелл
В ролях: Эдриан Броуди, Форест Уитакер, Кэм Жиганде, Клифтон Коллинз мл., Этан Кон, Фишер Стивенс, Трэвис Фиммел, Дэвид Баннер, Джейсон Лью, Дэмиен Лик
Описание: Когда ученые решили провести уникальное исследование психики человека, никто и подумать не мог, чем все это закончится. Двадцать шесть обывателей заперты по разные стороны решетки, одни играют роль заключенных, другие - охранников. Они согласились на это добровольно. Им казалось, что будет весело. Но за железными засовами даже самая невинная шутка может довести человека до безумия. Сколько времени пройдет до того, как прольется первая кровь?
Рейтинг MPAA: Рейтинг NC-17 (Лица, не достигшие 17 лет, на фильм не допускаются)
Мировая премьера: 15 июля 2010
Изображение
Изображение
Изображение

Премьера (мир): 15 июля 2010
Премьера (РФ): неизвестно
Релиз DVD: 3 ноября 2010


Продолжительность: 01:36:05
Перевод: Дублированный (MVO R5 “СВ-Дубль”)
Субтитры: Русские, Английские


Качество видео: BDRemux
Размер кадра: 1920x1080 px
Видеокодек: MPEG4 AVC/H.264
Битрейт видео: 28502 kbps

Аудио#1: Изображение Русский (MVO R5 СВ-Дубль) | AC3, 6ch (Front: L C R, Side: L R, LFE), 384 kbps, 48.0 kHz
Аудио#2: Изображение English | DTS-HD MA / 5.1 / 48 kHz / 3770 kbps / 24-bit (DTS Core: 5.1 / 48 kHz / 1509 kbps / 24-bit)
MediaInfo
General
Complete name                            : \The Experiment (2010) BD-Remux.mkv
Format                                   : Matroska
Format version                           : Version 2
File size                                : 20.9 GiB
Duration                                 : 1h 36mn
Overall bit rate mode                    : Variable
Overall bit rate                         : 31.1 Mbps
Movie name                               : The Experiment (2010) BD-Remux -=VB=-
Encoded date                             : UTC 2012-09-02 10:15:46
Writing application                      : mkvmerge v5.7.0 ('The Whirlwind') built on Jul  8 2012 20:08:51
Writing library                          : libebml v1.2.3 + libmatroska v1.3.0

Video
ID                                       : 1
Format                                   : AVC
Format/Info                              : Advanced Video Codec
Format profile                           : High@L4.1
Format settings, CABAC                   : Yes
Format settings, ReFrames                : 2 frames
Codec ID                                 : V_MPEG4/ISO/AVC
Duration                                 : 1h 36mn
Bit rate mode                            : Variable
Bit rate                                 : 28.5 Mbps
Width                                    : 1 920 pixels
Height                                   : 1 080 pixels
Display aspect ratio                     : 16:9
Frame rate                               : 23.976 fps
Color space                              : YUV
Chroma subsampling                       : 4:2:0
Bit depth                                : 8 bits
Scan type                                : Progressive
Bits/(Pixel*Frame)                       : 0.573
Stream size                              : 19.1 GiB (92%)
Title                                    : The Experiment (2010) BD-Remux
Language                                 : English
Default                                  : No
Forced                                   : No

Audio #1
ID                                       : 2
Format                                   : AC-3
Format/Info                              : Audio Coding 3
Mode extension                           : CM (complete main)
Codec ID                                 : A_AC3
Duration                                 : 1h 36mn
Bit rate mode                            : Constant
Bit rate                                 : 384 Kbps
Channel(s)                               : 6 channels
Channel positions                        : Front: L C R, Side: L R, LFE
Sampling rate                            : 48.0 KHz
Bit depth                                : 16 bits
Compression mode                         : Lossy
Stream size                              : 264 MiB (1%)
Title                                    : MVO R5 СВ-Дубль
Language                                 : Russian
Default                                  : No
Forced                                   : No

Audio #2
ID                                       : 3
Format                                   : DTS
Format/Info                              : Digital Theater Systems
Format profile                           : MA / Core
Codec ID                                 : A_DTS
Duration                                 : 1h 36mn
Bit rate mode                            : Variable
Bit rate                                 : 1 561 Kbps / 1 510 Kbps
Channel(s)                               : 6 channels
Channel positions                        : Front: L C R, Side: L R, LFE
Sampling rate                            : 48.0 KHz
Bit depth                                : 24 bits
Compression mode                         : Lossless / Lossy
Title                                    : DTS-HD MA / 5.1 / 48 kHz / 3770 kbps / 24-bit (DTS Core: 5.1 / 48 kHz / 1509 kbps / 24-bit)
Language                                 : English
Default                                  : Yes
Forced                                   : No

Text #1
ID                                       : 4
Format                                   : PGS
Muxing mode                              : zlib
Codec ID                                 : S_HDMV/PGS
Codec ID/Info                            : The same subtitle format used on BDs/HD-DVDs
Title                                    : Ru
Language                                 : Russian
Default                                  : Yes
Forced                                   : No

Text #2
ID                                       : 5
Format                                   : PGS
Muxing mode                              : zlib
Codec ID                                 : S_HDMV/PGS
Codec ID/Info                            : The same subtitle format used on BDs/HD-DVDs
Title                                    : En
Language                                 : English
Default                                  : No
Forced                                   : No

Menu
00:00:00.000                             : en:Chapter 00
00:05:44.928                             : en:Chapter 01
00:12:14.317                             : en:Chapter 02
00:16:44.378                             : en:Chapter 03
00:22:29.013                             : en:Chapter 04
00:29:43.782                             : en:Chapter 05
00:34:36.908                             : en:Chapter 06
00:38:25.303                             : en:Chapter 07
00:45:45.451                             : en:Chapter 08
00:53:41.218                             : en:Chapter 09
01:00:21.868                             : en:Chapter 10
01:10:30.852                             : en:Chapter 11
01:13:46.964                             : en:Chapter 12
01:17:03.160                             : en:Chapter 13
01:22:22.646                             : en:Chapter 14
01:26:45.867                             : en:Chapter 15

Свернуть


Скриншоты:

Изображение
Изображение
Изображение
Изображение
Изображение
Изображение
Свернуть

_________________
Изображение
Изображение
Не в сети
Профиль  
Начать новую темуОтветить на тему  [ 1 сообщение ] 
Вы не можете начинать темы
Вы не можете отвечать на сообщения
Вы не можете редактировать свои сообщения
Вы не можете удалять свои сообщения