Правила форума

  • В этом разделе создание новых тем Запрещено.
  • Для создания новых тем пользуйтесь Корневым разделом DVD и HD фильмы.
Начать новую темуОтветить на тему  [ Сообщений: 4 ] 
Торрент файл
Размер: 4.7 GB • Зарегистрирован: 4 года 8 месяцев • Статус: Проверено
Скачан: 189 раз • Желающих скачать: 0 • Поблагодарили: 39 раз
 Раздают: 1  |  0 KB/s  ]   Качают: 0  |  0 KB/s  ] 
Сообщения
 Добавлено: 2012-04-02 05:41
DVD Release Group
Аватара пользователя
Стаж: 7 лет 1 месяц
Сообщений: 3568
Спасибок: 247639
Лайков: 1020
Экстрасенс

The Awakening


Изображение


Год выпуска: 2011
Страна: Великобритания / BBC Films, Origin Pictures, Scottish Screen, StudioCanal
Жанр: Ужасы, триллер
Продолжительность: 01:46:41
Перевод: Профессиональный (дублированный)
Субтитры: Русские, английские
Режиссер: Ник Мерфи
В ролях: Ребекка Холл, Доминик Уэст, Имелда Стонтон, Люси Коху, Джон Шрэпнел, Дайана Кент, Ричард Дерден, Элфи Филд, Тилли Восберг
Описание: Действие картины происходит в 1920 году. Ученый-скептик приезжает в загородную школу-интернат, где, по слухам, наблюдается повышенная спектральная активность. Сначала она уверена, что сможет развенчать этот миф, но затем пугающая встреча со сверхъестественным заставляет ее изменить свое мнение…
КиноПоиск: 6.57 (2081)
IMDb: 6.5 (5007)
Дополнительно: Сохранены оригинальные чаптеры как на Blu-ray.
Sample:
http://multi-up.com/678774
Качество: BDRip 720p [HiDt]
Формат: MKV
Видео кодек: H.264
Аудио кодек: AC3
Видео: 1280x544 23.98fps 5218kbps 0.313bit/pixel
Аудио Rus: 48kHz 6ch 448kbps
Аудио Eng: 48kHz 6ch 640kbps
"MediaInfo"

Формат : Matroska
Версия формата : Version 2
Размер файла : 4,70 Гбайт
Продолжительность : 1 ч. 46 м.
Общий поток : 6304 Кбит/сек
Название фильма : Экстрасенс
Дата кодирования : UTC 2012-04-01 20:09:06
Программа кодирования : mkvmerge v5.3.0 ('I could have danced') built on Feb 9 2012 10:38:07
Библиотека кодирования : libebml v1.2.3 + libmatroska v1.3.0

Видео
Идентификатор : 1
Формат : AVC
Формат/Информация : Advanced Video Codec
Профиль формата : High@L4.1
Параметр CABAC формата : Да
Параметр ReFrames формата : 12 кадров
Идентификатор кодека : V_MPEG4/ISO/AVC
Продолжительность : 1 ч. 46 м.
Битрейт : 5218 Кбит/сек
Ширина : 1280 пикселей
Высота : 544 пикселя
Соотношение сторон : 2,35:1
Частота кадров : 23,976 кадра/сек
Цветовое пространство : YUV
Субдискретизация насыщенности : 4:2:0
Битовая глубина : 8 бит
Тип развёртки : Прогрессивная
Бит/(Пиксели*Кадры) : 0.313
Размер потока : 3,79 Гбайт (81%)
Заголовок : Jekstrasens.2011.D.BDRip.720p.ELEKTRI4KA
Библиотека кодирования : x264 core 122 r2183 c522ad1
Настройки программы : cabac=1 / ref=12 / deblock=1:-3:-3 / analyse=0x3:0x113 / me=tesa / subme=11 / psy=1 / psy_rd=1.14:0.01 / mixed_ref=1 / me_range=32 / chroma_me=1 / trellis=2 / 8x8dct=1 / cqm=0 / deadzone=21,11 / fast_pskip=0 / chroma_qp_offset=-3 / threads=12 / sliced_threads=0 / nr=0 / decimate=1 / interlaced=0 / bluray_compat=0 / constrained_intra=0 / bframes=6 / b_pyramid=2 / b_adapt=2 / b_bias=0 / direct=3 / weightb=1 / open_gop=0 / weightp=2 / keyint=240 / keyint_min=23 / scenecut=40 / intra_refresh=0 / rc_lookahead=80 / rc=2pass / mbtree=1 / bitrate=5218 / ratetol=1.0 / qcomp=0.70 / qpmin=0 / qpmax=69 / qpstep=4 / cplxblur=20.0 / qblur=0.5 / vbv_maxrate=45000 / vbv_bufsize=43000 / nal_hrd=none / ip_ratio=1.40 / aq=1:0.90
Язык : English

Аудио #1
Идентификатор : 2
Формат : AC-3
Формат/Информация : Audio Coding 3
Расширение режима : CM (complete main)
Идентификатор кодека : A_AC3
Продолжительность : 1 ч. 46 м.
Вид битрейта : Постоянный
Битрейт : 448 Кбит/сек
Каналы : 6 каналов
Расположение каналов : Front: L C R, Side: L R, LFE
Частота : 48,0 КГц
Битовая глубина : 16 бит
Метод сжатия : С потерями
Задержка видео : 7 с. 936 мс.
Размер потока : 342 Мбайт (7%)
Язык : Russian

Аудио #2
Идентификатор : 3
Формат : AC-3
Формат/Информация : Audio Coding 3
Расширение режима : CM (complete main)
Идентификатор кодека : A_AC3
Продолжительность : 1 ч. 46 м.
Вид битрейта : Постоянный
Битрейт : 640 Кбит/сек
Каналы : 6 каналов
Расположение каналов : Front: L C R, Side: L R, LFE
Частота : 48,0 КГц
Битовая глубина : 16 бит
Метод сжатия : С потерями
Размер потока : 489 Мбайт (10%)
Язык : English

Текст #1
Идентификатор : 4
Формат : UTF-8
Идентификатор кодека : S_TEXT/UTF8
Идентификатор кодека/Информация : UTF-8 Plain Text
Язык : Russian

Текст #2
Идентификатор : 5
Формат : UTF-8
Идентификатор кодека : S_TEXT/UTF8
Идентификатор кодека/Информация : UTF-8 Plain Text
Заголовок : SDH
Язык : English

Меню
00:00:00.000 : en:Chapter 01
00:07:39.876 : en:Chapter 02
00:16:46.630 : en:Chapter 03
00:24:27.174 : en:Chapter 04
00:33:27.922 : en:Chapter 05
00:42:40.766 : en:Chapter 06
00:50:17.973 : en:Chapter 07
00:59:56.134 : en:Chapter 08
01:10:18.923 : en:Chapter 09
01:17:44.701 : en:Chapter 10
01:26:21.968 : en:Chapter 11
01:39:13.781 : en:Chapter 12
Свернуть
"Скриншоты"

Изображение
Изображение
Изображение
Изображение
Свернуть

Раздача группы:
Изображение
Не в сети
Профиль  
 Добавлено: 2012-04-08 23:32 (спустя 6 дней)
Аватара пользователя
Стаж: 8 лет 3 месяца
Сообщений: 7
Фильм-БОМБА! Рекомендую любителям мистики :-ok-:
Не в сети
Профиль  
 Добавлено: 2013-11-16 15:35 (спустя 1 год 7 месяцев)
Top-releaser
Аватара пользователя
Стаж: 6 лет 7 месяцев
Сообщений: 2078
Спасибок: 3230
Лайков: 9
Раздайте :)
В сети
Профиль  
 Добавлено: 2014-05-29 19:32 (спустя 6 месяцев)
Стаж: 7 лет 7 месяцев
Сообщений: 14
ты что ли Денис?
Не в сети
Профиль  
Начать новую темуОтветить на тему  [ Сообщений: 4 ] 
Вы не можете начинать темы
Вы не можете отвечать на сообщения
Вы не можете редактировать свои сообщения
Вы не можете удалять свои сообщения