Правила форума

  • В этом разделе создание новых тем Запрещено.
  • Для создания новых тем пользуйтесь Корневым разделом DVD и HD фильмы.
Начать новую темуОтветить на тему  [ Сообщений: 5 ] 
Торрент файл
Размер: 10.29 GB • Зарегистрирован: 5 лет 7 месяцев • Статус: Проверено
Скачан: 95 раз • Желающих скачать: 0 • Поблагодарили: 36 раз
 Раздают: 2  |  0 KB/s  ]   Качают: 0  |  0 KB/s  ] 
Сообщения
 Добавлено: 2011-04-29 10:05
Top-releaser
Аватара пользователя
Стаж: 6 лет 7 месяцев
Сообщений: 2078
Спасибок: 3229
Лайков: 9
Эквилибриум / Equilibrium

Изображение


Год выпуска: 2002
Страна: США
Жанр: фантастика, экшн, триллер
Продолжительность: 01:47:02
Перевод: Профессиональный (полное дублирование), профессиональный (многоголосый), профессиональный (одноголосый)
Субтитры: Русский, Английский
Режиссёр: Курт Уиммер
В ролях: Кристиан Бэйл, Шон Бин, Эмили Уотсон, Тэй Диггз, Энгус МакФадьен, Шон Пертуи, Уильям Фихтнер, Джон Кеог, Дэвид Барраш, Дирк Мартенс, Доминик Пурселл
Описание: Действие происходит в будущем, когда люди лишены возможности выражать какие-то эмоции, потому, что они… запрещены. Это — та цена, которую человечество платит за устранение из своей жизни войны. Теперь книги, искусство и музыка находятся вне закона. А любое чувство — уже преступление, наказуемое смертью.
Для проведения в жизнь существующего правила используется принудительное применение лекарства «прозиум». Правительственный агент Джон Престон борется с теми, кто нарушает правила. В один прекрасный момент он забывает принять очередную дозу лекарства и с ним происходит духовное превращение, что приводит его к противоречию с самим собой и с начальством.

Качество: BDRip, 1080p
Формат: MKV
Видео кодек: H264 (AVC)
Аудио кодек: DTS
Видео: NTSC 23.976, 1920x816, 11000 кбит/с
Аудио #1: Русский (Дублированный), DTS, 6ch (L, C, R, Ls, Rs +LFE), 768 кбит/с |МОСФИЛЬМ-мастер|
Аудио #2: Русский (Профессиональный (многоголосый)), AC3, 6ch (L, C, R, Ls, Rs +LFE), 448 кбит/с |n/a|
Аудио #3: Русский (Профессиональный (один голос)), DTS, 6ch (L, C, R, Ls, Rs +LFE), 768 кбит/с |Живов|
Аудио #4: Английский (Оригинал), AC3, 6ch (L, C, R, Ls, Rs +LFE), 640 кбит/с
Аудио #5: Английский (Оригинал), OGG, 2ch (L,R), 80 кбит/с |Комментарий|
Аудио #6: Английский (Оригинал), OGG, 2ch (L,R), 80 кбит/с |Комментарий|
Субтитры: Русский, Английский

MediaInfo
Общее
Уникальный идентификатор : 223488517345413619087936219050432678746 (0xA82252A197FB301CB93A6447F1DA4B5A)
Полное имя : M:\Equilibrium.2002.1080p.mkv
Формат : Matroska
Размер файла : 10,3 Гбайт
Продолжительность : 1 ч. 47 м.
Общий поток : 13,8 Мбит/сек
Название фильма : Equilibrium.2002.1080p.BDRip.x264-Panda
Дата кодирования : UTC 2009-08-07 09:44:51
Программа кодирования : mkvmerge v2.9.7 ('Tenderness') built on Jul 1 2009 18:43:35
Библиотека кодирования : libebml v0.7.7 + libmatroska v0.8.1

Видео
Идентификатор : 1
Формат : AVC
Формат/Информация : Advanced Video Codec
Профиль формата : High@L4.1
Параметр CABAC формата : Да
Параметр ReFrames формата : 4 кадры
Параметры GOP формата : N=1
Идентификатор кодека : V_MPEG4/ISO/AVC
Продолжительность : 1 ч. 47 м.
Битрейт : 11,0 Мбит/сек
Ширина : 1920 пикс.
Высота : 816 пикс.
Соотношение сторон : 2,35:1
Частота кадров : 23,976 кадр/сек
Цветовое пространство : YUV
Подвыборка цветности : 4:2:0
Битовая глубина : 8 бит
Тип развёртки : Прогрессивная
Бит/(Пиксели*Кадры) : 0.293
Размер потока : 8,02 Гбайт (78%)
Заголовок : Equilibrium.2002.1080p.BDRip.x264-HDv0T
Библиотека кодирования : x264 core 68 r1184M 88b35c2
Настройки программы : cabac=1 / ref=4 / deblock=1:-2:-1 / analyse=0x3:0x113 / me=umh / subme=9 / psy_rd=0.7:0.0 / mixed_ref=1 / me_range=16 / chroma_me=0 / trellis=2 / 8x8dct=1 / cqm=0 / deadzone=2,2 / chroma_qp_offset=-6 / threads=3 / nr=0 / decimate=1 / mbaff=0 / bframes=3 / b_pyramid=1 / b_adapt=2 / b_bias=0 / direct=3 / wpredb=1 / keyint=250 / keyint_min=25 / scenecut=40 / rc=2pass / bitrate=11000 / ratetol=1.0 / qcomp=0.60 / qpmin=10 / qpmax=51 / qpstep=4 / cplxblur=20.0 / qblur=0.5 / ip_ratio=1.40 / pb_ratio=1.30 / aq=2:1.20
Язык : English

Аудио #1
Идентификатор : 2
Формат : DTS
Формат/Информация : Digital Theater Systems
Идентификатор кодека : A_DTS
Продолжительность : 1 ч. 47 м.
Вид битрейта : Постоянный
Битрейт : 755 Кбит/сек
Канал(ы) : 6 канала(ов)
Расположение каналов : Front: L C R, Side: L R, LFE
Частота : 48,0 КГц
Битовая глубина : 24 бит
Метод сжатия : С потерями
Размер потока : 578 Мбайт (5%)
Заголовок : Russin_Dub DTS 5.1 @ 768 kbps
Язык : Russian

Аудио #2
Идентификатор : 3
Формат : AC-3
Формат/Информация : Audio Coding 3
Расширение режима : CM (complete main)
Идентификатор кодека : A_AC3
Продолжительность : 1 ч. 47 м.
Вид битрейта : Постоянный
Битрейт : 448 Кбит/сек
Канал(ы) : 6 канала(ов)
Расположение каналов : Front: L C R, Side: L R, LFE
Частота : 48,0 КГц
Битовая глубина : 16 бит
Метод сжатия : С потерями
Размер потока : 343 Мбайт (3%)
Заголовок : Russian_Mn AC3 5.1 @ 448 kbps
Язык : Russian

Аудио #3
Идентификатор : 4
Формат : DTS
Формат/Информация : Digital Theater Systems
Идентификатор кодека : A_DTS
Продолжительность : 1 ч. 47 м.
Вид битрейта : Постоянный
Битрейт : 755 Кбит/сек
Канал(ы) : 6 канала(ов)
Расположение каналов : Front: L C R, Side: L R, LFE
Частота : 48,0 КГц
Битовая глубина : 24 бит
Метод сжатия : С потерями
Размер потока : 578 Мбайт (5%)
Заголовок : Russian_Ghivov DTS 5.1 @ 768 kbps
Язык : Russian

Аудио #4
Идентификатор : 5
Формат : AC-3
Формат/Информация : Audio Coding 3
Расширение режима : CM (complete main)
Идентификатор кодека : A_AC3
Продолжительность : 1 ч. 47 м.
Вид битрейта : Постоянный
Битрейт : 640 Кбит/сек
Канал(ы) : 6 канала(ов)
Расположение каналов : Front: L C R, Side: L R, LFE
Частота : 48,0 КГц
Битовая глубина : 16 бит
Метод сжатия : С потерями
Размер потока : 490 Мбайт (5%)
Заголовок : English AC3 5.1 @ 640kbps_TruHD core
Язык : English

Аудио #5
Идентификатор : 6
Формат : Vorbis
Параметр Floor формата : 1
Идентификатор кодека : A_VORBIS
Продолжительность : 1 ч. 47 м.
Вид битрейта : Постоянный
Битрейт : 80,0 Кбит/сек
Канал(ы) : 2 канала(ов)
Частота : 48,0 КГц
Метод сжатия : С потерями
Размер потока : 61,2 Мбайт (1%)
Заголовок : English Commentary-1
Библиотека кодирования : aoTuV b5c (UTC 2008-12-15)
Язык : English

Аудио #6
Идентификатор : 7
Формат : Vorbis
Параметр Floor формата : 1
Идентификатор кодека : A_VORBIS
Продолжительность : 1 ч. 47 м.
Вид битрейта : Постоянный
Битрейт : 80,0 Кбит/сек
Канал(ы) : 2 канала(ов)
Частота : 48,0 КГц
Метод сжатия : С потерями
Размер потока : 61,2 Мбайт (1%)
Заголовок : English Commentary-2
Библиотека кодирования : aoTuV b5c (UTC 2008-12-15)
Язык : English

Текст #1
Идентификатор : 8
Формат : UTF-8
Идентификатор кодека : S_TEXT/UTF8
Идентификатор кодека/Информация : UTF-8 Plain Text
Заголовок : Russian
Язык : Russian

Текст #2
Идентификатор : 9
Формат : UTF-8
Идентификатор кодека : S_TEXT/UTF8
Идентификатор кодека/Информация : UTF-8 Plain Text
Заголовок : English
Язык : English

Меню
00:00:00.000 : en:00:00:00.000
00:08:37.559 : en:00:08:37.559
00:18:27.523 : en:00:18:27.523
00:25:41.874 : en:00:25:41.874
00:37:04.764 : en:00:37:04.764
00:47:40.858 : en:00:47:40.858
00:56:43.609 : en:00:56:43.609
01:03:10.120 : en:01:03:10.120
01:11:55.269 : en:01:11:55.269
01:23:47.439 : en:01:23:47.439
01:27:14.729 : en:01:27:14.729
01:40:31.525 : en:01:40:31.525
Свернуть
Скриншоты
Изображение

Изображение

Изображение
Свернуть
В сети
Профиль  
 Добавлено: 2011-04-30 16:53 (спустя 1 день 6 часов)
Аватара пользователя
Стаж: 7 лет 1 месяц
Возраст: 54
Сообщений: 20
yyuuii1223 когда раздавать начнёте?Желающих качать уже предостаточно!!!
Не в сети
Профиль  
 Добавлено: 2011-04-30 17:01 (спустя 8 минут)
Top-releaser
Аватара пользователя
Стаж: 6 лет 7 месяцев
Сообщений: 2078
Спасибок: 3229
Лайков: 9
Александр21
у меня не получается целый день раздавать
В сети
Профиль  
 Добавлено: 2011-05-01 18:40 (спустя 1 день 1 час)
Top-releaser
Аватара пользователя
Стаж: 6 лет 7 месяцев
Сообщений: 2078
Спасибок: 3229
Лайков: 9
Все качать начали, как-будто никто никогда не глядел
В сети
Профиль  
 Добавлено: 2011-07-14 16:49 (спустя 2 месяца 12 дней)
Аватара пользователя
Стаж: 7 лет 2 месяца
Сообщений: 14
Дайте скорости плиз.
Не в сети
Профиль  
Начать новую темуОтветить на тему  [ Сообщений: 5 ] 
Вы не можете начинать темы
Вы не можете отвечать на сообщения
Вы не можете редактировать свои сообщения
Вы не можете удалять свои сообщения