Правила форума

  • В этом разделе создание новых тем Запрещено.
  • Для создания новых тем пользуйтесь Корневым разделом DVD и HD фильмы.
Начать новую темуОтветить на тему  [ Сообщений: 2 ] 
Торрент файл
Размер: 11.38 GB • Зарегистрирован: 4 года 8 месяцев • Статус: Проверено
Скачан: 73 раза • Желающих скачать: 0 • Поблагодарили: 12 раз
 Раздают: 0  |  0 KB/s  ]   Качают: 0  |  0 KB/s  ] 
 Полного источника не было 3 года 2 месяца 
Сообщения
 Добавлено: 2012-03-14 18:01
Top-releaser
Аватара пользователя
Стаж: 7 лет 3 месяца
Возраст: 25
Сообщений: 1036
Спасибок: 2694
Лайков: 9
Элвин и бурундуки 3
Alvin and the Chipmunks: Chipwrecked


«Полундра!»

Изображение


Год выхода: 2011
Страна: США

Жанр: мультфильм, фэнтези, комедия, семейный, музыка
Продолжительность: 01:27:09
Перевод: Дублированное [лицензия]

Режиссер: Майк Митчел
Сценарий: Джонатан Айбел, Гленн Бергер, Росс Багдасарян,..
Продюсер: Росс Багдасарян мл., Дженис Карман, Нил А. Мачлиз, ...
Оператор: Томас Экермен
Композитор: Марк Мазерсбо

В ролях: Джейсон Ли, Дэвид Кросс, Дженни Слейт, Джастин Лонг, Мэттью Грей, Гублер Джесси, МакКартни, Эми Полер, Анна Фэрис, Кристина Эпплгейт, Алан Тьюдик

Описание: Приключения троицы непоседливых братьев-бурундуков продолжаются! Элвин, Саймон и Теодор, а также их подруги бурундушки, просто не могут оставаться в стороне от различного рода неприятностей, сулящих им новые увлекательные приключения. Что на этот раз уготовила судьба нашим героям, и как они выпутаются из очередной передряги — вот в чём вопрос.

Изображение

Изображение

Бюджет: $75 000 000
Cборы в США: $131 227 444
Cборы в мире: + $204 100 000 = $335 327 444
Cборы в России: $6 901 871

Качество BDRip 1080p R5
Формат: Mkv

Видео: MPEG4 Video (H264) 1920x1040 23.98fps 16.5 Mbps
Аудио 1: DTS 48000Hz 6ch 755 Kbps (Rus)
Аудио 2: DTS 48000Hz 6ch 1 510 Kbps (Eng)
Subtitle: Utf-8

Изображение

MediaInfo
General
Unique ID : 228836528953035212997228300150950488075 (0xAC284FF60A5851FDAEBB98930786680B)
Complete name : I:\Download\Elvin i burunduki-3.DVD_RG(1080p).mkv
Format : Matroska
Format version : Version 2
File size : 11.4 GiB
Duration : 1h 27mn
Overall bit rate : 18.7 Mbps
Encoded date : UTC 2012-03-11 12:55:55
Writing application : mkvmerge v4.9.1 ('Ich will') сборка от Aug 10 2011 09:31:20
Writing library : libebml v1.2.1 + libmatroska v1.2.0

Video
ID : 1
Format : AVC
Format/Info : Advanced Video Codec
Format profile : High@L4.1
Format settings, CABAC : Yes
Format settings, ReFrames : 4 frames
Codec ID : V_MPEG4/ISO/AVC
Duration : 1h 27mn
Bit rate : 16.5 Mbps
Width : 1 920 pixels
Height : 1 040 pixels
Display aspect ratio : 16:9
Frame rate : 23.976 fps
Color space : YUV
Chroma subsampling : 4:2:0
Bit depth : 8 bits
Scan type : Progressive
Bits/(Pixel*Frame) : 0.344
Stream size : 9.78 GiB (86%)
Writing library : x264 core 120 r2164 da19765
Encoding settings : cabac=1 / ref=4 / deblock=1:-3:-3 / analyse=0x3:0x133 / me=umh / subme=10 / psy=1 / psy_rd=1.00:0.00 / mixed_ref=1 / me_range=48 / chroma_me=1 / trellis=2 / 8x8dct=1 / cqm=0 / deadzone=21,11 / fast_pskip=1 / chroma_qp_offset=-2 / threads=12 / sliced_threads=0 / nr=0 / decimate=0 / interlaced=0 / bluray_compat=0 / constrained_intra=0 / bframes=6 / b_pyramid=2 / b_adapt=2 / b_bias=0 / direct=3 / weightb=1 / open_gop=0 / weightp=2 / keyint=250 / keyint_min=23 / scenecut=40 / intra_refresh=0 / rc_lookahead=60 / rc=2pass / mbtree=0 / bitrate=16452 / ratetol=1.0 / qcomp=0.60 / qpmin=0 / qpmax=69 / qpstep=4 / cplxblur=20.0 / qblur=0.5 / vbv_maxrate=50000 / vbv_bufsize=50000 / nal_hrd=none / ip_ratio=1.50 / pb_ratio=1.30 / aq=1:1.00
Language : English
Default : Yes
Forced : No

Audio #1
ID : 2
Format : DTS
Format/Info : Digital Theater Systems
Codec ID : A_DTS
Duration : 1h 27mn
Bit rate mode : Constant
Bit rate : 755 Kbps
Channel(s) : 6 channels
Channel positions : Front: L C R, Side: L R, LFE
Sampling rate : 48.0 KHz
Bit depth : 24 bits
Compression mode : Lossy
Stream size : 471 MiB (4%)
Language : Russian
Default : Yes
Forced : Yes

Audio #2
ID : 3
Format : DTS
Format/Info : Digital Theater Systems
Codec ID : A_DTS
Duration : 1h 27mn
Bit rate mode : Constant
Bit rate : 1 510 Kbps
Channel(s) : 6 channels
Channel positions : Front: L C R, Side: L R, LFE
Sampling rate : 48.0 KHz
Bit depth : 24 bits
Compression mode : Lossy
Stream size : 942 MiB (8%)
Language : English
Default : No
Forced : No

Text #1
ID : 4
Format : UTF-8
Codec ID : S_TEXT/UTF8
Codec ID/Info : UTF-8 Plain Text
Language : Russian
Default : No
Forced : No

Text #2
ID : 5
Format : UTF-8
Codec ID : S_TEXT/UTF8
Codec ID/Info : UTF-8 Plain Text
Language : English
Default : No
Forced : No


Свернуть
Скриншоты
Изображение
Изображение
Изображение
Изображение
Изображение
Свернуть
В сети
Профиль  
 Добавлено: 2012-04-06 09:38 (спустя 22 дня)
Аватара пользователя
Стаж: 6 лет 7 месяцев
Сообщений: 5
скорости плиз!
Не в сети
Профиль  
Начать новую темуОтветить на тему  [ Сообщений: 2 ] 
Вы не можете начинать темы
Вы не можете отвечать на сообщения
Вы не можете редактировать свои сообщения
Вы не можете удалять свои сообщения