Правила форума

  • В этом разделе создание новых тем Запрещено.
  • Для создания новых тем пользуйтесь Корневым разделом DVD и HD фильмы.
Начать новую темуОтветить на тему  [ Сообщений: 2 ] 
Торрент файл
Размер: 9.36 GB • Зарегистрирован: 2 года 8 месяцев • Статус: Проверено
Скачан: 86 раз • Желающих скачать: 0 • Поблагодарили: 40 раз
 Раздают: 2  |  0 KB/s  ]   Качают: 0  |  0 KB/s  ] 
Сообщения
 Добавлено: 2014-03-16 00:23
Аватара пользователя
Стаж: 9 лет 1 месяц
Сообщений: 7919
Спасибок: 122107
Лайков: 1191
Эмпайр Стэйт / Empire State

«Based on a true story»

Изображение


Год выпуска: 2013
Страна: Изображение США
Жанр: криминал, драма
Продолжительность: 01:34:20
Перевод: Профессиональный (многоголосый, закадровый) [Лицензия]


Режиссер: Дито Монтиель
Сценарий: Адам Мазер
Продюсер: Рэндолл Эмметт, Джордж Фурла, Сэнди Киркостас
Оператор: Дана Гонсалес
Композитор: Дэвид Уиттман

В ролях: Лиам Хемсворт, Дуэйн Джонсон, Эмма Робертс, Никки Рид, Шеней Граймс, Майкл Ангарано, Джерри Феррара, Крис Диамантополос, Джеймс Рэнсон, Джина Мантенья

Описание: В этом триллере, основанном на реальных событиях, речь пойдет о произошедшем в 1982 году в Нью-Йорке ограблении инкассаторских бронеавтомобилей, которое на тот момент считалось крупнейшим в США.

Изображение Изображение

Раздача группы: Изображение

Качество: BDRip (1080p)
Формат: Matroska
Видео: MPEG-4 AVC, 12.3 Мбит/с, 1920x800
Аудио №1: Русский (AC3, 48,0 КГц, 6 ch, 448 Кбит/c)
Аудио №2: Английский (DTS, 48,0 КГц, 6 ch, 1510 Кбит/c)

MediaInfo
Общее
Уникальный идентификатор : 197254748397981447704629619965924242697 (0x9465E1F61603A5F9AA58C34EB5C87509)
Полное имя : C:\Фильмы\Empire.State.2013.BDRip.1080p.mkv
Формат : Matroska
Версия формата : Version 2
Размер файла : 9,36 Гбайт
Продолжительность : 1 ч. 34 м.
Общий поток : 14,2 Мбит/сек
Название фильма : NNPORTAL
Дата кодирования : UTC 2014-03-15 20:25:30
Программа кодирования : mkvmerge v5.7.0 ('The Whirlwind') built on Jul 29 2012 15:12:35
Библиотека кодирования : libebml v1.2.3 + libmatroska v1.3.0

Видео
Идентификатор : 1
Формат : AVC
Формат/Информация : Advanced Video Codec
Профиль формата : High@L4.1
Параметр CABAC формата : Да
Параметр ReFrames формата : 5 кадров
Идентификатор кодека : V_MPEG4/ISO/AVC
Продолжительность : 1 ч. 34 м.
Битрейт : 12,3 Мбит/сек
Ширина : 1920 пикселей
Высота : 800 пикселей
Соотношение сторон : 2,40:1
Режим частоты кадров : Постоянный
Частота кадров : 23,976 кадра/сек
Цветовое пространство : YUV
Субдискретизация насыщенности : 4:2:0
Битовая глубина : 8 бит
Тип развёртки : Прогрессивная
Бит/(Пиксели*Кадры) : 0.333
Размер потока : 7,88 Гбайт (84%)
Библиотека кодирования : x264 core 135 r2345 f0c1c53
Настройки программы : cabac=1 / ref=5 / deblock=1:-2:-2 / analyse=0x3:0x113 / me=umh / subme=10 / psy=1 / psy_rd=1.10:0.25 / mixed_ref=1 / me_range=32 / chroma_me=1 / trellis=2 / 8x8dct=1 / cqm=0 / deadzone=21,11 / fast_pskip=1 / chroma_qp_offset=-4 / threads=12 / lookahead_threads=2 / sliced_threads=0 / nr=0 / decimate=1 / interlaced=0 / bluray_compat=0 / constrained_intra=0 / bframes=7 / b_pyramid=2 / b_adapt=2 / b_bias=0 / direct=1 / weightb=1 / open_gop=0 / weightp=2 / keyint=240 / keyint_min=23 / scenecut=40 / intra_refresh=0 / rc_lookahead=200 / rc=2pass / mbtree=1 / bitrate=12250 / ratetol=1.0 / qcomp=0.70 / qpmin=0 / qpmax=69 / qpstep=4 / cplxblur=20.0 / qblur=0.5 / vbv_maxrate=62500 / vbv_bufsize=78125 / nal_hrd=none / ip_ratio=1.40 / aq=2:1.20
Язык : English
Default : Да
Forced : Нет
Основные цвета : BT.709
Характеристики трансфера : BT.709
Коэффициенты матрицы : BT.709

Аудио #1
Идентификатор : 2
Формат : AC-3
Формат/Информация : Audio Coding 3
Расширение режима : CM (complete main)
Параметр Endianness формата : Big
Идентификатор кодека : A_AC3
Продолжительность : 1 ч. 34 м.
Вид битрейта : Постоянный
Битрейт : 448 Кбит/сек
Каналы : 6 каналов
Расположение каналов : Front: L C R, Side: L R, LFE
Частота : 48,0 КГц
Битовая глубина : 16 бит
Метод сжатия : С потерями
Размер потока : 302 Мбайт (3%)
Заголовок : Лицензия
Язык : Russian
Default : Да
Forced : Нет

Аудио #2
Идентификатор : 3
Формат : DTS
Формат/Информация : Digital Theater Systems
Режим : 16
Параметр Endianness формата : Big
Идентификатор кодека : A_DTS
Продолжительность : 1 ч. 34 м.
Вид битрейта : Постоянный
Битрейт : 1509 Кбит/сек
Каналы : 6 каналов
Расположение каналов : Front: L C R, Side: L R, LFE
Частота : 48,0 КГц
Битовая глубина : 24 бит
Метод сжатия : С потерями
Размер потока : 1018 Мбайт (11%)
Язык : English
Default : Нет
Forced : Нет

Меню
00:00:00.000 : en:00:00:00.000
00:06:06.157 : en:00:06:06.157
00:13:03.032 : en:00:13:03.032
00:19:22.995 : en:00:19:22.995
00:22:39.775 : en:00:22:39.775
00:27:36.071 : en:00:27:36.071
00:33:38.767 : en:00:33:38.767
00:39:55.018 : en:00:39:55.018
00:46:00.383 : en:00:46:00.383
00:52:26.143 : en:00:52:26.143
00:59:47.375 : en:00:59:47.375
01:06:38.703 : en:01:06:38.703
01:12:29.887 : en:01:12:29.887
01:20:12.808 : en:01:20:12.808
01:25:26.747 : en:01:25:26.747
01:29:23.900 : en:01:29:23.900
Свернуть
Знаете ли вы, что...
Первый фильм режиссера Дито Монтиеля без участия Ченнинга Татума.

Когда детектив Джеймс Рэнсом наблюдает за Крисом и Эдди на автостоянке после грабежа, можно заметить, что его часы это последняя модель «G Shock». Часы фирмы «G Shock» появились в 1983 году, но до 1990 года они были квадратными.

Свернуть
Скриншоты
Изображение
Изображение
Изображение
Свернуть
Не в сети
Профиль  
 Добавлено: 2014-03-28 09:54 (спустя 12 дней)
Аватара пользователя
Стаж: 7 лет 6 месяцев
Возраст: 26
Сообщений: 41
Лайков: 1
Люди увидевшие сценариста и всех тех кто согласился снимать его забейте их камнями!!
 kvazelian нравится это.
Не в сети
Профиль  
Начать новую темуОтветить на тему  [ Сообщений: 2 ] 
Вы не можете начинать темы
Вы не можете отвечать на сообщения
Вы не можете редактировать свои сообщения
Вы не можете удалять свои сообщения