Правила форума

  • В этом разделе создание новых тем Запрещено.
  • Для создания новых тем пользуйтесь Корневым разделом DVD и HD фильмы.
Начать новую темуОтветить на тему  [ 1 сообщение ] 
Торрент файл
Размер: 3.16 GB • Зарегистрирован: 3 года • Статус: Проверено
Скачан: 9 раз • Желающих скачать: 0 • Поблагодарили: 11 раз
 Раздают: 0  |  0 KB/s  ]   Качают: 0  |  0 KB/s  ] 
 Полного источника не было 2 года 1 месяц 
Сообщения
 Добавлено: 2013-11-28 11:43
Аватара пользователя
Стаж: 7 лет 2 месяца
Сообщений: 7167
Спасибок: 82001
Лайков: 2438
Энималс / Animals

Изображение


Год выпуска: 2012
Страна: Испания
Жанр: фэнтези, драма
Продолжительность: 01:34:50
Перевод: Профессиональный (многоголосый закадровый) + Оригинальная звуковая дорожка
Субтитры: Английские

Режиссёр: Марсал Форес
В ролях: Ориол Пла, Август Прю, Димитрий Леонидас, Розе Тапиас, Хавьер Белтран, Мартин Фриман, Мария Родригез Сото, Катя Клейн, Миа Лакостена, Анаис Лопес
Описание: Полу скоро исполнится 18, с виду он обычный парень: заканчивает школу, играет на электрогитаре.
У Пола есть секрет: Дерхуф, приятель довольно потрепанного вида, плюшевый медведь, который всюду следует за Полом, разговаривает, имея собственное мнение на любой счет, и к тому же неплохо справляется с ударной установкой.
Конфликт со старшим братом, который убежден, что Пол в одиночестве общается сам с собой, а Дерхуф — его фантазия, желание повзрослеть склоняет Пола к непростому решению: избавиться от Дерхуфа.
Пол изо всех сил старается жить, как ни в чем ни бывало. Но потеря друга, влюбленность, необъяснимое исчезновение девушки, начало полной недомолвок и тайн дружбы с одноклассником — все вместе это запускает пружину странных событий, готовую распрямиться в необратимость.
Изображение

Качество: WEB-DL 720p
Формат: MKV
Видео кодек: H264 (AVC)
Аудио кодек: AC3 (Dolby Digital)
Видео: 1 280x538, 23.976 fps, 4 093 Kbps
Аудио #1: 48.0 KHz, 2 ch, 192 Kbps [Профессиональный (многоголосый закадровый)]
Аудио #2: 48.0 KHz, 6 ch, 384 Kbps [Оригинальная звуковая дорожка]
Субтитры: Английские
Изображение
Скриншоты
Изображение

Изображение

Изображение

Изображение
Свернуть
MI
General
Энималс.2012.mkv
Format : Matroska
Format version : Version 4 / Version 2
File size : 3.16 GiB
Duration : 1h 34mn
Overall bit rate : 4 763 Kbps
Encoded date : UTC 2013-11-27 19:15:26
Writing application : mkvmerge v6.5.0 ('Isn't she lovely') built on Oct 20 2013 12:50:05
Writing library : libebml v1.3.0 + libmatroska v1.4.1

Video
ID : 1
Format : AVC
Format/Info : Advanced Video Codec
Format profile : Main@L3.1
Format settings, CABAC : No
Format settings, ReFrames : 2 frames
Codec ID : V_MPEG4/ISO/AVC
Duration : 1h 34mn
Bit rate : 4 093 Kbps
Width : 1 280 pixels
Height : 538 pixels
Display aspect ratio : 2.40:1
Frame rate mode : Constant
Frame rate : 23.976 fps
Color space : YUV
Chroma subsampling : 4:2:0
Bit depth : 8 bits
Scan type : Progressive
Bits/(Pixel*Frame) : 0.248
Stream size : 2.71 GiB (86%)
Language : Catalan
Default : Yes
Forced : No
Color primaries : BT.709
Transfer characteristics : BT.709
Matrix coefficients : BT.709

Audio #1
ID : 2
Format : AC-3
Format/Info : Audio Coding 3
Mode extension : CM (complete main)
Format settings, Endianness : Big
Codec ID : A_AC3
Duration : 1h 34mn
Bit rate mode : Constant
Bit rate : 192 Kbps
Channel(s) : 2 channels
Channel positions : Front: L R
Sampling rate : 48.0 KHz
Bit depth : 16 bits
Compression mode : Lossy
Stream size : 130 MiB (4%)
Title : online movies
Language : Russian
Default : Yes
Forced : Yes

Audio #2
ID : 3
Format : AC-3
Format/Info : Audio Coding 3
Mode extension : CM (complete main)
Format settings, Endianness : Big
Codec ID : A_AC3
Duration : 1h 34mn
Bit rate mode : Constant
Bit rate : 384 Kbps
Channel(s) : 6 channels
Channel positions : Front: L C R, Side: L R, LFE
Sampling rate : 48.0 KHz
Bit depth : 16 bits
Compression mode : Lossy
Stream size : 260 MiB (8%)
Language : Spanish
Default : No
Forced : No

Text
ID : 4
Format : UTF-8
Codec ID : S_TEXT/UTF8
Codec ID/Info : UTF-8 Plain Text
Language : English
Default : No
Forced : No

Menu
00:00:00.000 : en:1
00:09:22.000 : en:2
00:19:23.000 : en:3
00:29:23.000 : en:4
00:39:05.000 : en:5
00:49:33.000 : en:6
00:58:03.000 : en:7
01:07:37.000 : en:8
01:16:25.000 : en:9
01:25:08.000 : en:10
01:32:01.000 : en:11
Свернуть
 MiSkam, zima-letoru и rotametr нравится это.
Не в сети
Профиль  
Начать новую темуОтветить на тему  [ 1 сообщение ] 
Вы не можете начинать темы
Вы не можете отвечать на сообщения
Вы не можете редактировать свои сообщения
Вы не можете удалять свои сообщения