Правила форума

  • В этом разделе создание новых тем Запрещено.
  • Для создания новых тем пользуйтесь Корневым разделом DVD и HD фильмы.
Начать новую темуОтветить на тему  [ 1 сообщение ] 
Торрент файл
Размер: 9.69 GB • Зарегистрирован: 5 лет 2 месяца • Статус: Проверено
Скачан: 98 раз • Желающих скачать: 0 • Поблагодарили: 19 раз
 Раздают: 0  |  0 KB/s  ]   Качают: 0  |  0 KB/s  ] 
 Полного источника не было 3 года 2 месяца 
Сообщения
 Добавлено: 2011-10-03 17:44
Top-releaser
Аватара пользователя
Стаж: 8 лет 7 месяцев
Сообщений: 1286
Спасибок: 3420
Лайков: 7
Эпоха героев / Age of Heroes

Изображение
Год выпуска: 2011
Страна: Великобритания
Жанр: военный
Продолжительность: 01:33:34
Перевод: Профессиональный (многоголосый, закадровый)[лицензия]

Режиссер: Эдриан Виториа
Сценарий: Эд Скэтес, Эдриан Виториа
Продюсер: Джеймс Браун, Джеймс Янгс, Лекс Люцус, Ник О’Хаган, Снейл Шах
Оператор: Марк Хэмилтон
Композитор: Майкл Ричард Плауман

В ролях: Шон Бин, Изабелла Мико, Дэнни Дайер, Джеймс Д’Арси, Себастьян Стрит, Рози Феллнер, Аксель Хенни, Джон Даглейш, Уильям Хьюстон, Тео Барклем-Биггз, Дэниэл Броклбэнк, Гай Бернет
Описание: Фильм основан на реальных событиях и рассказывает о знаменитом английском отряде «30 Assault Unit», известном также под названием «30 Commando». Отряд был сформирован во время Второй мировой по инициативе Яна Флеминга, служившего тогда в британской военно-морской разведке, и действовал на оккупированной нацистами территории. Его задачей была добыча немецкой секретной документации и различных технических устройств.

Раздача: Изображение

Изображение


Мировая премьера: 20 мая 2011
Качество: BDRip
Формат: Matroska
Видео: AVC; 1920x814 (2.35:1); 11515 Kbps; 24 fps; 0,307 bpp
Аудио №1: Russian; DTS; 1509 Kbps; CBR; 6 ch; 24 bit
Аудио №2: DTS; 1509 Kbps; CBR; 6 ch; 24 bit

MediaInfo
Общее
Уникальный идентификатор : 242609775848429807874009009066245915160 (0xB684F1764298E86FB9BAF1D604208218)
Полное имя : E:\Видео\Age.Of.Heroes.2011.P.BDRip.1080p.[uniongang.tv].mkv
Формат : Matroska
Версия формата : Version 2
Размер файла : 9,69 Гбайт
Продолжительность : 1 ч. 33 м.
Общий поток : 14,8 Мбит/сек
Название фильма : -=UNIONGANG.TV=-
Дата кодирования : UTC 2011-10-02 17:57:15
Программа кодирования : mkvmerge v5.0.0 ('Die Wahre Liebe') built on Sep 25 2011 20:33:49
Библиотека кодирования : libebml v1.2.2 + libmatroska v1.3.0

Видео
Идентификатор : 1
Формат : AVC
Формат/Информация : Advanced Video Codec
Профиль формата : High@L4.1
Параметр CABAC формата : Да
Параметр ReFrames формата : 5 кадров
Режим смешивания : Header stripping
Идентификатор кодека : V_MPEG4/ISO/AVC
Продолжительность : 1 ч. 33 м.
Битрейт : 11,8 Мбит/сек
Ширина : 1920 пикс.
Высота : 814 пикс.
Соотношение сторон : 2,35:1
Частота кадров : 24,000 кадр/сек
Цветовое пространство : YUV
Подвыборка цветности : 4:2:0
Битовая глубина : 8 бит
Тип развёртки : Прогрессивная
Бит/(Пиксели*Кадры) : 0.315
Размер потока : 7,53 Гбайт (78%)
Заголовок : -=UNIONGANG.TV=-
Библиотека кодирования : x264 core 114 r1924 08d04a4
Настройки программы : cabac=1 / ref=5 / deblock=1:-3:-3 / analyse=0x3:0x113 / me=umh / subme=9 / psy=1 / psy_rd=1.05:0.10 / mixed_ref=1 / me_range=32 / chroma_me=1 / trellis=2 / 8x8dct=1 / cqm=2 / deadzone=21,11 / fast_pskip=0 / chroma_qp_offset=-2 / threads=12 / sliced_threads=0 / nr=0 / decimate=1 / interlaced=0 / constrained_intra=0 / bframes=6 / b_pyramid=2 / b_adapt=2 / b_bias=0 / direct=3 / weightb=1 / open_gop=0 / weightp=2 / keyint=250 / keyint_min=24 / scenecut=40 / intra_refresh=0 / rc_lookahead=50 / rc=2pass / mbtree=1 / bitrate=11815 / ratetol=1.0 / qcomp=0.70 / qpmin=1 / qpmax=63 / qpstep=4 / cplxblur=20.0 / qblur=0.5 / vbv_maxrate=40000 / vbv_bufsize=40000 / nal_hrd=none / ip_ratio=1.40 / aq=2:0.80
Язык : English

Аудио #1
Идентификатор : 2
Формат : DTS
Формат/Информация : Digital Theater Systems
Режим смешивания : Header stripping
Идентификатор кодека : A_DTS
Продолжительность : 1 ч. 33 м.
Вид битрейта : Постоянный
Битрейт : 1510 Кбит/сек
Каналы : 6 каналов
Расположение каналов : Front: L C R, Side: L R, LFE
Частота : 48,0 КГц
Битовая глубина : 24 бит
Метод сжатия : С потерями
Размер потока : 1011 Мбайт (10%)
Язык : Russian

Аудио #2
Идентификатор : 3
Формат : DTS
Формат/Информация : Digital Theater Systems
Режим смешивания : Header stripping
Идентификатор кодека : A_DTS
Продолжительность : 1 ч. 33 м.
Вид битрейта : Постоянный
Битрейт : 1510 Кбит/сек
Каналы : 6 каналов
Расположение каналов : Front: L C R, Side: L R, LFE
Частота : 48,0 КГц
Битовая глубина : 24 бит
Метод сжатия : С потерями
Размер потока : 1011 Мбайт (10%)
Язык : English

Текст
Идентификатор : 4
Формат : UTF-8
Идентификатор кодека : S_TEXT/UTF8
Идентификатор кодека/Информация : UTF-8 Plain Text
Язык : English

Свернуть

Скриншоты
Изображение
Изображение
Изображение
Изображение
Изображение
Изображение
Изображение
Изображение
Свернуть

Изображение
Не в сети
Профиль  
Начать новую темуОтветить на тему  [ 1 сообщение ] 
Вы не можете начинать темы
Вы не можете отвечать на сообщения
Вы не можете редактировать свои сообщения
Вы не можете удалять свои сообщения