Правила форума

  • В этом разделе создание новых тем Запрещено.
  • Для создания новых тем пользуйтесь Корневым разделом DVD и HD фильмы.
Начать новую темуОтветить на тему  [ 1 сообщение ] 
Торрент файл
Размер: 9.36 GB • Зарегистрирован: 1 год 7 месяцев • Статус: Проверено
Скачан: 11 раз • Желающих скачать: 0 • Поблагодарили: 1 раз
 Раздают: 0  |  0 KB/s  ]   Качают: 0  |  0 KB/s  ] 
 Полного источника не было 3 месяца 12 дней 
Сообщения
 Добавлено: 2015-04-20 13:26
RG-ELEKTRO
Аватара пользователя
Стаж: 2 года 3 месяца
Сообщений: 7928
Спасибок: 53745
Лайков: 3304
Эрин Брокович / Erin Brockovich


Изображение


Год выпуска: 2000
Страна: США (Jersey Films)
Жанр: драма, биография
Продолжительность: 02:11:11
Перевод: Профессиональный (дубляж)
Дублеры: Ирина Мазуркевич, Андрей Толубеев, Александр Баргман, Вадим Гущин, Вадим Яковлев
Субтитры: Русские, Английские

Режиссёр: Стивен Содерберг
Сценарист: Сюзанна Грант
Продюсер: Дэнни ДеВито, Майкл Шамберг, Стейси Шер
Оператор: Эдвард Лахман
Композитор: Томас Ньюман
В ролях: Джулия Робертс, Альберт Финни, Аарон Экхарт, Дэвид Брисбин, Доун Дидавик, Валенте Родригес, Кончата Феррелл, Джордж Роки Салливан, Пэт Скиппер, Джек Гилл, Ирен Ольга Лопез, Эмили Маркс, Джули Маркс, Скотти Левенуорф, Джеменн де ла Пенья, Эрин Брокович-Эллис, Адила Барнс, Рон Альтомаре, Марж Хелгенбергер, Рэнди Лауэлл, Джэми Харольд, Сара Эшли, Скарлетт Поумерс, Ти-Джей Тайн, Джо Крест, Мередит Зиннер, Майкл Харни, Уильям Лаккинг, Мими Кеннеди, Скотт Сауэрс, Черри Джонс, Кристина Малота, Уэйд Уильямс, Корделия Ричардс, Эшли Пиментал, Бриттани Пиментал, Трейси Уолтер, Ларри Мартинез, Дон Снелл, Майкл Шамберг, Джина Гальего, Питер Койот
Описание: История об Эрин Брокович, одинокой женщине с тремя детьми, которую жизнь не часто баловала светлыми днями. Для таких, как она, нет карьерных перспектив, есть только скромная работа в маленькой юридической фирме. Но для уверенной в себе красотки, не стесняющейся в выражениях, достаточно одного ничтожного шанса, чтобы кардинально изменить свою судьбу. Красота и обаяние помогли ей добиться невиданного успеха, но теперь Эрин потребуется невероятная решительность, чтобы довести дело века до суда.
Мировая премьера: 14 марта 2000
Премьера в России: 25 мая 2000, «Каскад»
Бюджет: $52 000 000
Кассовые сборы: $256 271 286
Изображение Изображение
Качество: BDRip 1080p
Формат: MKV
Видео кодек: MPEG-4 AVC
Аудио кодек: AC3
Видео: MPEG-4 AVC, 9552 Кбит/с, 1920x1040
Аудио #1: AC3, 6 ch, 640 Кбит/с [Профессиональный (дубляж)]
Субтитры: Русские, Английские

"Награды и премии"

Оскар, 2001 год
Победитель (1):
Лучшая женская роль (Джулия Робертс)

Номинации (4):
Лучший фильм
Лучшая мужская роль второго плана (Альберт Финни)
Лучший режиссер (Стивен Содерберг)
Лучший сценарий

Золотой глобус, 2001 год
Победитель (1):
Лучшая женская роль (драма) (Джулия Робертс)

Номинации (3):
Лучший фильм (драма)
Лучшая мужская роль второго плана (Альберт Финни)
Лучший режиссер (Стивен Содерберг)

Премия канала «MTV», 2001 год
Победитель (1):
Лучшая женская роль (Джулия Робертс)

Номинации (2):
Лучший фильм
Лучшая реплика

Британская академия, 2001 год
Победитель (1):
Лучшая женская роль (Джулия Робертс)

Номинации (5):
Лучший фильм
Лучшая мужская роль второго плана (Альберт Финни)
Лучший оригинальный сценарий
Лучший монтаж
Премия имени Дэвида Лина за достижения в режиссуре (Стивен Содерберг)

Премия Гильдии актеров, 2001 год
Победитель (2):
Лучшая женская роль (Джулия Робертс)
Лучшая мужская роль второго плана (Альберт Финни)

Европейская киноакадемия, 2000 год
Номинации (1):
Приз Screen International Award

Свернуть

"MI"
General
Unique ID : 206835914617995721332804631779473537683 (0x9B9B25ED677F6E92BCE4ECD69FD2BA93)
Complete name : D:\фильмы\Эрин Брокович - Erin Brockovich BDRip(1080p).mkv
Format : Matroska
Format version : Version 4 / Version 2
File size : 9.36 GiB
Duration : 2h 11mn
Overall bit rate : 10.2 Mbps
Movie name : Эрин Брокович _ Erin.Brockovich (2000).BDRip.1080p
Encoded date : UTC 2013-09-24 04:54:30
Writing application : mkvmerge v6.3.0 ('You can't stop me!') built on Jun 28 2013 20:09:41
Writing library : libebml v1.3.0 + libmatroska v1.4.0

Video
ID : 1
Format : AVC
Format/Info : Advanced Video Codec
Format profile : High@L4.1
Format settings, CABAC : Yes
Format settings, ReFrames : 11 frames
Codec ID : V_MPEG4/ISO/AVC
Duration : 2h 11mn
Bit rate : 9 552 Kbps
Width : 1 920 pixels
Height : 1 040 pixels
Display aspect ratio : 1.85:1
Frame rate mode : Constant
Frame rate : 23.976 fps
Color space : YUV
Chroma subsampling : 4:2:0
Bit depth : 8 bits
Scan type : Progressive
Bits/(Pixel*Frame) : 0.200
Stream size : 8.59 GiB (92%)
Title : Эрин Брокович _ Erin Brockovich (2000).JP.BDRip.1080p
Writing library : x264 core 125 r2208 d9d2288
Encoding settings : cabac=1 / ref=11 / deblock=1:-3:-3 / analyse=0x3:0x113 / me=umh / subme=11 / psy=1 / psy_rd=1.00:0.00 / mixed_ref=1 / me_range=32 / chroma_me=0 / trellis=2 / 8x8dct=1 / cqm=0 / deadzone=21,11 / fast_pskip=1 / chroma_qp_offset=-4 / threads=2 / lookahead_threads=2 / sliced_threads=0 / nr=0 / decimate=1 / interlaced=0 / bluray_compat=0 / constrained_intra=0 / bframes=11 / b_pyramid=2 / b_adapt=2 / b_bias=0 / direct=3 / weightb=1 / open_gop=1 / weightp=2 / keyint=250 / keyint_min=23 / scenecut=40 / intra_refresh=0 / rc_lookahead=40 / rc=2pass / mbtree=0 / bitrate=9552 / ratetol=1.0 / qcomp=0.70 / qpmin=10 / qpmax=55 / qpstep=4 / cplxblur=20.0 / qblur=0.5 / vbv_maxrate=62000 / vbv_bufsize=75000 / nal_hrd=none / ip_ratio=1.40 / pb_ratio=1.30 / aq=1:1.00
Language : English
Default : Yes
Forced : No

Audio
ID : 2
Format : AC-3
Format/Info : Audio Coding 3
Mode extension : CM (complete main)
Format settings, Endianness : Big
Codec ID : A_AC3
Duration : 2h 11mn
Bit rate mode : Constant
Bit rate : 640 Kbps
Channel(s) : 6 channels
Channel positions : Front: L C R, Side: L R, LFE
Sampling rate : 48.0 KHz
Bit depth : 16 bits
Compression mode : Lossy
Stream size : 601 MiB (6%)
Title : AC3 5.1 | 640 kbps | DubL
Language : Russian
Default : Yes
Forced : No

Text #1
ID : 3
Format : PGS
Muxing mode : zlib
Codec ID : S_HDMV/PGS
Codec ID/Info : The same subtitle format used on BDs/HD-DVDs
Language : English
Default : No
Forced : No

Text #2
ID : 4
Format : PGS
Muxing mode : zlib
Codec ID : S_HDMV/PGS
Codec ID/Info : The same subtitle format used on BDs/HD-DVDs
Language : Russian
Default : No
Forced : No

Menu
00:00:00.000 : ru: (01)
00:07:33.077 : ru: (02)
00:15:06.322 : ru: (03)
00:26:32.590 : ru: (04)
00:33:04.691 : ru: (05)
00:39:18.314 : ru: (06)
00:46:28.786 : ru: (07)
00:57:21.396 : ru: (08)
01:09:58.444 : ru: (09)
01:14:41.977 : ru: (10)
01:24:00.660 : ru: (11)
01:29:58.393 : ru: (12)
01:38:34.325 : ru: (13)
01:46:44.606 : ru: (14)
01:52:21.568 : ru: (15)
01:59:39.797 : ru: (16)

Свернуть

Скриншоты
Изображение
Изображение
Изображение
Изображение
Свернуть



Изображение Изображение
Не в сети
Профиль  
Начать новую темуОтветить на тему  [ 1 сообщение ] 
Вы не можете начинать темы
Вы не можете отвечать на сообщения
Вы не можете редактировать свои сообщения
Вы не можете удалять свои сообщения