Правила форума

  • В этом разделе создание новых тем Запрещено.
  • Для создания новых тем пользуйтесь Корневым разделом DVD и HD фильмы.
Начать новую темуОтветить на тему  [ Сообщений: 4 ] 
Торрент файл
Размер: 10.15 GB • Зарегистрирован: 5 лет 3 месяца • Статус: Проверено
Скачан: 41 раз • Желающих скачать: 0 • Поблагодарили: 7 раз
 Раздают: 0  |  0 KB/s  ]   Качают: 0  |  0 KB/s  ] 
 Полного источника не было 1 год 4 месяца 
Сообщения
 Добавлено: 2011-08-15 10:31
Top-releaser
Аватара пользователя
Стаж: 7 лет 3 месяца
Возраст: 25
Сообщений: 1036
Спасибок: 2694
Лайков: 9
Еще один год / Another Year

Изображение



Год выхода: 2010
Страна: Великобритания

Жанр: мелодрама, комедия
Продолжительность: 02:09:47
Перевод: Профессиональное (многоголосое) [лицензия]

Режиссер: Майк Ли
Сценарий: Майк Ли
Продюсер: Джорджина Лоу, Даниэль Брэндон, Гэйл Иган
Оператор: Дик Поуп
Композитор: Гари Ершон

В ролях: Джим Броудбент, Лесли Мэнвиль, Рут Шин, Питер Уайт, Дэвид Брэдли, Мишель Остин, Филип Дэвис, Имельда Стонтон, Стюарт МакКуорри, Айлин Дэвис, Мэри Джо Рэндл, Бен Робертс, Дэвид Хоббс, Бади Уззаман, Ральф Инесон, Эдна Дорэ, Гэри Пауэлл, Лайза МакДоналд

Описание: Том и Джерри — семейная пара предпенсионного возраста. Вечера и выходные они коротают с родными и близкими — единственным сыном Джо, острой на язык Мэри, не слишком опрятным сослуживцем Тома Кеном… Ужин и неспешная беседа, чай и вино, ободряющие советы и словесные перепалки. Любовь и тепло, надежда и отчаяние. Общение. Одиночество. Рождение. Смерть. Весна, лето, осень, зима. Время проходит…

KinoPoisk.ru: 7.767
IMDb.com: 7.8/10

Pаздача группы:Изображение

Качество: BDRip 1080p
Формат: Mkv

Видео: MPEG4 Video (H264) 1920x816 23.98fps 1 510 Kbps
Аудио 1 [[b]Rus]:[/b] DTS 48000Hz 6ch
Аудио 2 [[b]Eng]:[/b] DTS 48000Hz 6ch
Аудио 3 [[b]Eng]:[/b] AAC 48000Hz 2ch
Subtitle: Utf-8

Изображение

MediaInfo
General
Unique ID : 194732770633695521156290400540659736932 (0x92802ADB7E208018AD4797F3202AE164)
Complete name : H:\Dounload\Another.Year.2010.BDRip.1080p.Tempter.[uniongang.tv].mkv
Format : Matroska
File size : 10.2 GiB
Duration : 2h 9mn
Overall bit rate : 11.2 Mbps
Movie name : Another Year (2010) Release for Uniongang.tv
Encoded date : UTC 2011-08-14 19:26:49
Writing application : mkvmerge v4.8.0 ('I Got The...') сборка от May 24 2011 03:12:58
Writing library : libebml v1.2.0 + libmatroska v1.1.0

Video
ID : 1
Format : AVC
Format/Info : Advanced Video Codec
Format profile : High@L4.1
Format settings, CABAC : Yes
Format settings, ReFrames : 5 frames
Codec ID : V_MPEG4/ISO/AVC
Duration : 2h 9mn
Width : 1 920 pixels
Height : 816 pixels
Display aspect ratio : 2.35:1
Frame rate : 23.976 fps
Color space : YUV
Chroma subsampling : 4:2:0
Bit depth : 8 bits
Scan type : Progressive
Title : Another Year (2010) Release for Uniongang.tv
Language : English

Audio #1
ID : 2
Format : DTS
Format/Info : Digital Theater Systems
Codec ID : A_DTS
Duration : 2h 9mn
Bit rate mode : Constant
Bit rate : 1 510 Kbps
Channel(s) : 6 channels
Channel positions : Front: L C R, Side: L R, LFE
Sampling rate : 48.0 KHz
Bit depth : 24 bits
Compression mode : Lossy
Delay relative to video : 7ms
Stream size : 1.37 GiB (13%)
Title : Russian: DTS, 1510 Kb/s (6 ch)
Language : Russian

Audio #2
ID : 3
Format : DTS
Format/Info : Digital Theater Systems
Codec ID : A_DTS
Duration : 2h 9mn
Bit rate mode : Constant
Bit rate : 1 510 Kbps
Channel(s) : 6 channels
Channel positions : Front: L C R, Side: L R, LFE
Sampling rate : 48.0 KHz
Bit depth : 24 bits
Compression mode : Lossy
Delay relative to video : 7ms
Stream size : 1.37 GiB (13%)
Title : English: DTS, 1510 Kb/s (6 ch)
Language : English

Audio #3
ID : 4
Format : AAC
Format/Info : Advanced Audio Codec
Format profile : HE-AAC / LC
Codec ID : A_AAC
Duration : 2h 9mn
Channel(s) : 2 channels
Channel positions : Front: L R
Sampling rate : 48.0 KHz / 24.0 KHz
Compression mode : Lossy
Delay relative to video : 18ms
Title : English: AAC, 56 kb/s (2 ch) [commentary]
Language : English

Text #1
ID : 5
Format : UTF-8
Codec ID : S_TEXT/UTF8
Codec ID/Info : UTF-8 Plain Text
Title : Russian
Language : Russian

Text #2
ID : 6
Format : UTF-8
Codec ID : S_TEXT/UTF8
Codec ID/Info : UTF-8 Plain Text
Title : English
Language : English

Text #3
ID : 7
Format : UTF-8
Codec ID : S_TEXT/UTF8
Codec ID/Info : UTF-8 Plain Text
Title : English
Language : English

Text #4
ID : 8
Format : UTF-8
Codec ID : S_TEXT/UTF8
Codec ID/Info : UTF-8 Plain Text
Title : French
Language : French


Свернуть
Скриншоты
Изображение
Изображение
Изображение
Изображение
Изображение
Свернуть
Не в сети
Профиль  
 Добавлено: 2011-08-15 10:46 (спустя 14 минут)
Руководитель релиз-группы
Аватара пользователя
Стаж: 7 лет 2 месяца
Возраст: 4
Сообщений: 5213
Спасибок: 19350
Лайков: 2312
FoTP Помогу раздать :-ok-:
_________________
Изображение

Изображение
Не в сети
Профиль  
 Добавлено: 2011-08-15 10:46 (спустя 52 секунды)
Top-releaser
Аватара пользователя
Стаж: 7 лет 3 месяца
Возраст: 25
Сообщений: 1036
Спасибок: 2694
Лайков: 9
спасиб :)
Не в сети
Профиль  
 Добавлено: 2011-08-16 19:23 (спустя 1 день 8 часов)
Кинокомментатор
Аватара пользователя
Стаж: 9 лет 1 месяц
Сообщений: 1332
Лайков: 54
важности ценности семьи... вот об этом фильм! о том что важно уважать людей и они будут к тебе добры...
фильм хороший) посмотрел) вынес что то) забыл) второй раз смотреть не буду) но .... 7 былов заслужил!)
_________________
Я ВКонтакте
Не в сети
Профиль  
Начать новую темуОтветить на тему  [ Сообщений: 4 ] 
Вы не можете начинать темы
Вы не можете отвечать на сообщения
Вы не можете редактировать свои сообщения
Вы не можете удалять свои сообщения