Правила форума

  • В этом разделе создание новых тем Запрещено.
  • Для создания новых тем пользуйтесь Корневым разделом DVD и HD фильмы.
Начать новую темуОтветить на тему  [ Сообщений: 3 ] 
Торрент файл
Размер: 3.74 GB • Зарегистрирован: 3 года 8 месяцев • Статус: Проверено
Скачан: 40 раз • Желающих скачать: 0 • Поблагодарили: 12 раз
 Раздают: 0  |  0 KB/s  ]   Качают: 0  |  0 KB/s  ] 
 Полного источника не было 1 год 9 месяцев 
Сообщения
 Добавлено: 2013-03-16 22:47
DVD Release Group
Аватара пользователя
Стаж: 7 лет 1 месяц
Сообщений: 3546
Спасибок: 246990
Лайков: 1018
Если хочешь хорошо провести время, звони…

For a Good Time, Call...


Изображение


Год выпуска: 2012
Страна: США
Жанр: Комедия
Продолжительность: 01:27:27
Перевод: Профессиональный (полное дублирование)
Субтитры: Английские
Режиссер: Джеми Трэвис
В ролях: Лорен Миллер, Джеймс Волк, Эри Грейнор, Джастин Лонг, Лоуренс Мэндли, Эдди Геллер, Джош Рубен, Стивен Шоу, Мими Роджерс, Дон МакМанус
Описание: Две молодые девушки запускают собственный бизнес, представляющий собой предоставление услуг секса по телефону.
Изображение
Sample:
http://sendfile.su/779298
Качество: BDRip 720p
Формат: MKV
Видео кодек: H.264
Аудио кодек: AC3, DTS
Видео: 1280x544 23.98fps 4230Kbps
Аудио:
Аудио Rus: AC3 48kHz 6ch 384kbps
Аудио Eng: DTS 48kHz 6ch 1510kbps
"MediaInfo"
Формат : Matroska
Версия формата : Version 2
Размер файла : 3,74 Гбайт
Продолжительность : 1 ч. 27 м.
Общий поток : 6115 Кбит/сек
Название фильма : Если хочешь хорошо провести время, звони…
Дата кодирования : UTC 2013-03-16 15:24:40
Программа кодирования : mkvmerge v5.2.0 ('I can't explain') built on Dec 18 2011 18:12:03
Библиотека кодирования : libebml v1.2.3 + libmatroska v1.3.0

Видео
Идентификатор : 1
Формат : AVC
Формат/Информация : Advanced Video Codec
Профиль формата : High@L4.1
Параметр CABAC формата : Да
Параметр ReFrames формата : 10 кадров
Идентификатор кодека : V_MPEG4/ISO/AVC
Продолжительность : 1 ч. 27 м.
Битрейт : 4230 Кбит/сек
Ширина : 1280 пикселей
Высота : 544 пикселя
Соотношение сторон : 2,35:1
Частота кадров : 23,976 кадра/сек
Цветовое пространство : YUV
Субдискретизация насыщенности : 4:2:0
Битовая глубина : 8 бит
Тип развёртки : Прогрессивная
Бит/(Пиксели*Кадры) : 0.253
Размер потока : 2,50 Гбайт (67%)
Заголовок : For.A.Good.Time.Call.2012.UNRATED.BluRay.720p.DTS.x264.RoSubbed-CHD
Библиотека кодирования : x264 core 125 r2208 d9d2288
Настройки программы : cabac=1 / ref=10 / deblock=1:-3:-3 / analyse=0x3:0x113 / me=umh / subme=10 / psy=1 / psy_rd=1.00:0.05 / mixed_ref=1 / me_range=32 / chroma_me=1 / trellis=2 / 8x8dct=1 / cqm=0 / deadzone=21,11 / fast_pskip=0 / chroma_qp_offset=-2 / threads=8 / lookahead_threads=1 / sliced_threads=0 / nr=0 / decimate=1 / interlaced=0 / bluray_compat=0 / constrained_intra=0 / bframes=5 / b_pyramid=2 / b_adapt=2 / b_bias=0 / direct=3 / weightb=1 / open_gop=0 / weightp=2 / keyint=250 / keyint_min=23 / scenecut=40 / intra_refresh=0 / rc=2pass / mbtree=0 / bitrate=4230 / ratetol=1.0 / qcomp=0.70 / qpmin=0 / qpmax=69 / qpstep=4 / cplxblur=20.0 / qblur=0.5 / ip_ratio=1.40 / pb_ratio=1.30 / aq=2:1.00
Язык : English
Default : Да
Forced : Да

Аудио #1
Идентификатор : 2
Формат : AC-3
Формат/Информация : Audio Coding 3
Расширение режима : CM (complete main)
Идентификатор кодека : A_AC3
Продолжительность : 1 ч. 27 м.
Вид битрейта : Постоянный
Битрейт : 384 Кбит/сек
Каналы : 6 каналов
Расположение каналов : Front: L C R, Side: L R, LFE
Частота : 48,0 КГц
Битовая глубина : 16 бит
Метод сжатия : С потерями
Размер потока : 240 Мбайт (6%)
Заголовок : DD 5.1 @ 384 kbps - Dub, R5
Язык : Russian
Default : Да
Forced : Да

Аудио #2
Идентификатор : 3
Формат : DTS
Формат/Информация : Digital Theater Systems
Идентификатор кодека : A_DTS
Продолжительность : 1 ч. 27 м.
Вид битрейта : Постоянный
Битрейт : 1510 Кбит/сек
Каналы : 6 каналов
Расположение каналов : Front: L C R, Side: L R, LFE
Частота : 48,0 КГц
Битовая глубина : 24 бит
Метод сжатия : С потерями
Размер потока : 944 Мбайт (25%)
Заголовок : DTS 5.1 @ 1536 kbps
Язык : English
Default : Нет
Forced : Нет

Текст
Идентификатор : 4
Формат : UTF-8
Идентификатор кодека : S_TEXT/UTF8
Идентификатор кодека/Информация : UTF-8 Plain Text
Язык : English
Default : Нет
Forced : Нет
Свернуть

"Скриншоты"
Изображение
Изображение
Изображение
Изображение
Свернуть

Раздача группы:
Изображение
Не в сети
Профиль  
 Добавлено: 2013-03-16 23:25 (спустя 37 минут)
Аватара пользователя
Стаж: 7 лет 4 месяца
Возраст: 28
Сообщений: 340
Спасибок: 4350
Лайков: 2
И где скорость?!
_________________
Вообще стало не совпадать: как хочется поступить и как правильно поступить. А хочется, чтобы было как правильно, но хочется, чтобы было, как хочется… И, что делать?!
Не в сети
Профиль  
 Добавлено: 2013-03-16 23:32 (спустя 7 минут)
DVD Release Group
Аватара пользователя
Стаж: 7 лет 1 месяц
Сообщений: 3546
Спасибок: 246990
Лайков: 1018

Анатолий15:

И где скорость?!
Какую вам скорость надо?
Не в сети
Профиль  
Начать новую темуОтветить на тему  [ Сообщений: 3 ] 
Вы не можете начинать темы
Вы не можете отвечать на сообщения
Вы не можете редактировать свои сообщения
Вы не можете удалять свои сообщения