Правила форума

  • В этом разделе создание новых тем Запрещено.
  • Для создания новых тем пользуйтесь Корневым разделом DVD и HD фильмы.
Начать новую темуОтветить на тему  [ 1 сообщение ] 
Торрент файл
Размер: 10.7 GB • Зарегистрирован: 2 года • Статус: Проверено
Скачан: 104 раза • Желающих скачать: 0 • Поблагодарили: 28 раз
 Раздают: 1  |  0 KB/s  ]   Качают: 0  |  0 KB/s  ] 
Сообщения
 Добавлено: 2014-11-22 19:56
Аватара пользователя
Стаж: 9 лет 1 месяц
Сообщений: 8071
Спасибок: 122301
Лайков: 1195
Если я останусь / If I Stay

«Жить, чтобы любить»

Изображение


Год выпуска: 2014
Страна: Изображение США
Жанр: драма
Продолжительность: 01:46:40
Субтитры: Русские, английские, украинские, румынские
Перевод: Профессиональный (полное дублирование) [Лицензия]


Режиссер: Р.Дж. Катлер
Сценарий: Шона Кросс, Гейл Форман
Продюсер: Денис Ди Нови, Элисон Гринспен, Гейл Форман
Оператор: Джон де Борман
Композитор: Эйтор Перейра

В ролях: Хлоя Грейс Морец, Мирей Инос, Джейми Блэкли, Джошуа Леонард, Лиана Либерато, Стейси Кич, Габриель Роз, Джейкоб Дейвис, Али Милнер, Аиша Хиндс

Описание: Мия — талантливая девушка, влюбленная в классическую музыку, в свою виолончель и рокера Адама. Но после автокатастрофы Мия оказывается в коме. Пока тело девушки лежит в больнице, ее душа должна решить, хочет ли она жить дальше или же лучше отправиться в мир иной вслед за своими родными.

Изображение Изображение

Раздача группы: Изображение

Качество: BDRip (1080p)
Формат: Matroska
Видео: MPEG-4 AVC, 11700 Кбит/с, 1920x800
Аудио №1: Русский (DTS, 48,0 КГц, 6 ch, 768 Кбит/c) Дубляж
Аудио №2: Русский (AC3, 48,0 КГц, 6 ch, 640 Кбит/c) Дубляж
Аудио №3: Английский (DTS, 48,0 КГц, 6 ch, 1510 Кбит/c)
Аудио №4: Английский (AC3, 48,0 КГц, 6 ch, 384 Кбит/c) Commentary by R.J. Cutler and Alison Greenspan
Аудио №5: Английский (AC3, 48,0 КГц, 6 ch, 384 Кбит/c) Music Commentary by R.J. Cutler

MediaInfo
Format : Matroska
Format version : Version 4 / Version 2
File size : 10.7 GiB
Duration : 1h 46mn
Overall bit rate : 14.4 Mbps
Movie name : released by aldershot
Encoded date : UTC 2014-11-22 15:06:06
Writing application : mkvmerge v6.9.1 ('Blue Panther')
Writing library : libebml v1.3.0 + libmatroska v1.4.1

Video
ID : 1
Format : AVC
Format/Info : Advanced Video Codec
Format profile : High@L4.1
Format settings, CABAC : Yes
Format settings, ReFrames : 5 frames
Codec ID : V_MPEG4/ISO/AVC
Duration : 1h 46mn
Width : 1 920 pixels
Height : 800 pixels
Display aspect ratio : 2.40:1
Frame rate mode : Constant
Frame rate : 23.976 fps
Color space : YUV
Chroma subsampling : 4:2:0
Bit depth : 8 bits
Scan type : Progressive
Writing library : x264 core 142 r2431+42 c69a006 tMod [8-bit@all X86_64]
Encoding settings : cabac=1 / ref=5 / deblock=1:-3:-3 / analyse=0x3:0x133 / me=umh /
subme=10 / psy=1 / fade_compensate=0.00 / psy_rd=0.95:0.00 / mixed_ref=1 / me_range=24 /
chroma_me=1 / trellis=2 / 8x8dct=1 / cqm=0 / deadzone=21,11 / fast_pskip=1 / chroma_qp_offset=-2 /
threads=12 / lookahead_threads=2 / sliced_threads=0 / nr=0 / decimate=1 / interlaced=0 /
bluray_compat=0 / constrained_intra=0 / fgo=0 / bframes=7 / b_pyramid=2 / b_adapt=2 / b_bias=0 /
direct=3 / weightb=1 / open_gop=0 / weightp=2 / keyint=250 / keyint_min=23 / scenecut=40 /
intra_refresh=0 / rc=crf / mbtree=0 / crf=17.6000 / qcomp=0.65 / qpmin=0:0:0 / qpmax=69:69:69 /
qpstep=4 / ip_ratio=1.30 / pb_ratio=1.20 / aq=4:0.85 / aq-sensitivity=10.00 / aq-factor=1.00:1.00:1.00 /
aq2=0 / aq3=0 / zones=12135,12454,crf=16.5/26343,27453,crf=16.5
Language : English
Default : Yes
Forced : No
Matrix coefficients : BT.709

Audio #1
ID : 2
Format : DTS
Format/Info : Digital Theater Systems
Mode : 16
Format settings, Endianness : Big
Codec ID : A_DTS
Duration : 1h 46mn
Bit rate mode : Constant
Bit rate : 768 Kbps
Channel(s) : 6 channels
Channel positions : Front: L C R, Side: L R, LFE
Sampling rate : 48.0 KHz
Bit depth : 24 bits
Compression mode : Lossy
Stream size : 586 MiB (5%)
Title : Дубляж, Blu-Ray EUR
Language : Russian
Default : Yes
Forced : No

Audio #2
ID : 3
Format : DTS
Format/Info : Digital Theater Systems
Mode : 16
Format settings, Endianness : Big
Codec ID : A_DTS
Duration : 1h 46mn
Bit rate mode : Constant
Bit rate : 1 509 Kbps
Channel(s) : 6 channels
Channel positions : Front: L C R, Side: L R, LFE
Sampling rate : 48.0 KHz
Bit depth : 24 bits
Compression mode : Lossy
Stream size : 1.12 GiB (11%)
Title : Original
Language : English
Default : No
Forced : No

Audio #3
ID : 4
Format : AAC
Format/Info : Advanced Audio Codec
Format profile : LC
Codec ID : A_AAC
Duration : 1h 46mn
Channel(s) : 2 channels
Channel positions : Front: L R
Sampling rate : 48.0 KHz
Compression mode : Lossy
Delay relative to video : 20ms
Title : Commentary by R.J. Cutler and Alison Greenspan
Language : English
Default : No
Forced : No

Audio #4
ID : 5
Format : AAC
Format/Info : Advanced Audio Codec
Format profile : LC
Codec ID : A_AAC
Duration : 1h 46mn
Channel(s) : 2 channels
Channel positions : Front: L R
Sampling rate : 48.0 KHz
Compression mode : Lossy
Delay relative to video : 20ms
Title : Music Commentary by R.J. Cutler
Language : English
Default : No
Forced : No

Text #1
ID : 6
Format : UTF-8
Codec ID : S_TEXT/UTF8
Codec ID/Info : UTF-8 Plain Text
Title : Full
Language : Romanian
Default : No
Forced : No

Text #2
ID : 7
Format : UTF-8
Codec ID : S_TEXT/UTF8
Codec ID/Info : UTF-8 Plain Text
Title : Full
Language : Russian
Default : No
Forced : No

Text #3
ID : 8
Format : UTF-8
Codec ID : S_TEXT/UTF8
Codec ID/Info : UTF-8 Plain Text
Title : Full
Language : Ukrainian
Default : No
Forced : No

Text #4
ID : 9
Format : UTF-8
Codec ID : S_TEXT/UTF8
Codec ID/Info : UTF-8 Plain Text
Title : Full
Language : English
Default : No
Forced : No

Text #5
ID : 10
Format : UTF-8
Codec ID : S_TEXT/UTF8
Codec ID/Info : UTF-8 Plain Text
Title : SDH
Language : English
Default : No
Forced : No

Text #6
ID : 11
Format : UTF-8
Codec ID : S_TEXT/UTF8
Codec ID/Info : UTF-8 Plain Text
Title : Commentary
Language : English
Default : No
Forced : No

Menu
00:00:00.000 : en:00:00:00.000
00:03:20.367 : en:00:03:20.367
00:07:23.902 : en:00:07:23.902
00:11:31.608 : en:00:11:31.608
00:14:43.716 : en:00:14:43.716
00:19:12.485 : en:00:19:12.485
00:23:19.607 : en:00:23:19.607
00:25:19.268 : en:00:25:19.268
00:27:26.436 : en:00:27:26.436
00:30:46.011 : en:00:30:46.011
00:32:11.596 : en:00:32:11.596
00:34:38.368 : en:00:34:38.368
00:37:21.906 : en:00:37:21.906
00:40:41.189 : en:00:40:41.189
00:44:02.223 : en:00:44:02.223
00:46:58.899 : en:00:46:58.899
00:49:07.820 : en:00:49:07.820
00:52:06.332 : en:00:52:06.332
00:55:42.756 : en:00:55:42.756
00:59:01.580 : en:00:59:01.580
01:00:42.347 : en:01:00:42.347
01:05:39.310 : en:01:05:39.310
01:10:10.039 : en:01:10:10.039
01:13:48.924 : en:01:13:48.924
01:16:18.407 : en:01:16:18.407
01:18:54.730 : en:01:18:54.730
01:24:05.415 : en:01:24:05.415
01:27:44.468 : en:01:27:44.468
01:29:50.176 : en:01:29:50.176
01:33:37.028 : en:01:33:37.028
01:38:16.307 : en:01:38:16.307
01:40:25.353 : en:01:40:25.353
Свернуть
Знаете ли вы, что...
Фильм снят по мотивам романа Гейл Форман «Если я останусь» (If I Stay, 2009).
Свернуть
Скриншоты
Изображение
Изображение
Изображение
Изображение
Свернуть
В сети
Профиль  
Начать новую темуОтветить на тему  [ 1 сообщение ] 
Вы не можете начинать темы
Вы не можете отвечать на сообщения
Вы не можете редактировать свои сообщения
Вы не можете удалять свои сообщения