Правила форума

  • В этом разделе создание новых тем Запрещено.
  • Для создания новых тем пользуйтесь Корневым разделом DVD и HD фильмы.
Начать новую темуОтветить на тему  [ Сообщений: 5 ] 
Торрент файл
Размер: 8.45 GB • Зарегистрирован: 5 лет • Статус: Проверено
Скачан: 149 раз • Желающих скачать: 0 • Поблагодарили: 26 раз
 Раздают: 0  |  0 KB/s  ]   Качают: 0  |  0 KB/s  ] 
 Полного источника не было 1 год 8 месяцев 
Сообщения
 Добавлено: 2011-11-30 08:40
Top-releaser
Аватара пользователя
Стаж: 8 лет 9 месяцев
Сообщений: 479
Спасибок: 20190
Лайков: 16
Эта - дурацкая - любовь

Crazy, Stupid, Love.


«This Is Crazy»

Изображение


Год выпуска: 2011
Страна: Изображение США; Carousel Productions
Жанр: Драма, мелодрама, комедия
Продолжительность: 01:58:06
Перевод: Профессиональный (полное дублирование), Оригинал


Режиссёр: Гленн Фикарра, Джон Рекуа / Glenn Ficarra, John Requa

В ролях: Стив Карелл, Райан Гослинг, Джулианна Мур, Эмма Стоун, Аналей Типтон, Йон Бобо, Джои Кинг, Мариса Томей, Бет Литлфорд, Джон Кэрролл Линч, Кевин Бейкон...


Описание: У Кола Уивера, пуританских взглядов семьянина в возрасте «чуть-чуть за сорок», не жизнь, а мечта — хорошая работа, прекрасный дом, замечательные дети и брак со школьной возлюбленной. Но когда Кол узнает, что его жена Эмили изменила ему и хочет развода, его «идеальная» жизнь быстро рушится. Хуже того, говоря современным языком, Кол, который уже пару десятилетий не ходил на свидания, являет собой настоящего «лоха».

И вот, проводя все свое свободное время в баре в дурном расположении духа, несчастный Кол становится протеже обаятельного («чуть-чуть за тридцать») игрока Джейкоба Палмера. Пытаясь помочь Колу забыть жену и начать собственную жизнь, Джейкоб открывает ему глаза на многочисленные возможности, открывающиеся перед ним: кокетливые женщины, крепкие напитки и чувство стиля, которое нельзя найти в дешевой парикмахерской или магазине распродаж.

Кол и Эмили — не единственные, кто ищут любовь, причем, возможно, совершенно не там, где нужно: тринадцатилетний Робби, сын Кола, сходит с ума по своей семнадцатилетней няне Джессике, а та скрывает свою влюбленность в его отца. И несмотря на новый облик и новые завоевания на любовном фронте, единственное, что Кол не может «переупрямить», — это собственное сердце, которое ведет его туда, с чего все когда-то начиналось.


Качество: BDRip 1080p R5
Формат: MKV

Видео: AVC, 1920 x 800 (2.400) at 23.976 fps, 8095 Кбит/сек

Аудио 1: Dolby AC3 48000Hz 6ch 640 Kbps (Дубляж)
Аудио 2: DTS 48000Hz 6ch 1510 Kbps (Оригинал)
Раздача: Изображение

Изображение
MediaInfo

Общее
Уникальный идентификатор : 223727891505397367895657946898444701290 (0xA8506CB04217E966A0D247434DD9CE6A)
Полное имя : C:\Users\Домашний\Desktop\Eta durackaya lyubov.2011.BDRip 1080p[nntt].mkv
Формат : Matroska
Размер файла : 8,45 Гбайт
Продолжительность : 1 ч. 58 м.
Общий поток : 10,2 Мбит/сек
Дата кодирования : UTC 2011-11-29 22:27:27
Программа кодирования : mkvmerge v4.9.1 ('Ich will') built on Sep 21 2011 17:48:11
Библиотека кодирования : libebml v1.2.1 + libmatroska v1.2.0

Видео
Идентификатор : 1
Формат : AVC
Формат/Информация : Advanced Video Codec
Профиль формата : High@L4.1
Параметр CABAC формата : Да
Параметр ReFrames формата : 5 кадры
Идентификатор кодека : V_MPEG4/ISO/AVC
Продолжительность : 1 ч. 58 м.
Битрейт : 8095 Кбит/сек
Ширина : 1920 пикс.
Высота : 800 пикс.
Соотношение сторон : 2,40:1
Частота кадров : 23,976 кадр/сек
Цветовое пространство : YUV
Подвыборка цветности : 4:2:0
Битовая глубина : 8 бит
Тип развёртки : Прогрессивная
Бит/(Пиксели*Кадры) : 0.220
Размер потока : 6,51 Гбайт (77%)
Заголовок : Crazy.Stupid.Love.2011
Библиотека кодирования : x264 core 118 r2085+614 d1cc25d
Настройки программы : cabac=1 / ref=5 / deblock=1:-3:-3 / analyse=0x3:0x113 / me=umh / subme=10 / psy=1 / fade_compensate=0.00 / psy_rd=1.05:0.10 / mixed_ref=1 / me_range=48 / chroma_me=1 / trellis=2 / 8x8dct=1 / cqm=1 / deadzone=21,11 / fast_pskip=0 / chroma_qp_offset=-2 / threads=12 / sliced_threads=0 / nr=0 / decimate=1 / interlaced=0 / bluray_compat=0 / constrained_intra=0 / fgo=0 / bframes=6 / b_pyramid=2 / b_adapt=2 / b_bias=0 / direct=3 / weightb=1 / open_gop=0 / weightp=2 / keyint=250 / keyint_min=23 / scenecut=40 / intra_refresh=0 / rc_lookahead=60 / rc=2pass / mbtree=1 / bitrate=8095 / ratetol=2.0 / qcomp=0.70 / qpmin=3 / qpmax=69 / qpstep=4 / cplxblur=20.0 / qblur=0.5 / vbv_maxrate=40000 / vbv_bufsize=30000 / nal_hrd=none / ip_ratio=1.40 / aq=2:1.00
Язык : English

Аудио #1
Идентификатор : 2
Формат : AC-3
Формат/Информация : Audio Coding 3
Расширение режима : CM (complete main)
Идентификатор кодека : A_AC3
Продолжительность : 1 ч. 58 м.
Вид битрейта : Постоянный
Битрейт : 640 Кбит/сек
Канал(ы) : 6 канала(ов)
Расположение каналов : Front: L C R, Side: L R, LFE
Частота : 48,0 КГц
Битовая глубина : 16 бит
Метод сжатия : С потерями
Размер потока : 541 Мбайт (6%)
Заголовок : ДБ
Язык : Russian

Аудио #2
Идентификатор : 3
Формат : DTS
Формат/Информация : Digital Theater Systems
Идентификатор кодека : A_DTS
Продолжительность : 1 ч. 58 м.
Вид битрейта : Постоянный
Битрейт : 1510 Кбит/сек
Канал(ы) : 6 канала(ов)
Расположение каналов : Front: L C R, Side: L R, LFE
Частота : 48,0 КГц
Битовая глубина : 24 бит
Метод сжатия : С потерями
Размер потока : 1,25 Гбайт (15%)
Заголовок : English DTS-HDMA core 5.1 1509Kbps
Язык : English


Свернуть
Скриншоты
Изображение
Изображение
Изображение
Изображение
Изображение
Изображение

Свернуть
_________________
Изображение
Изображение
Не в сети
Профиль  
 Добавлено: 2011-11-30 12:16 (спустя 3 часа)
Top-releaser
Аватара пользователя
Стаж: 7 лет 3 месяца
Возраст: 25
Сообщений: 1036
Спасибок: 2694
Лайков: 9
Джокер помогу раздать :co_ol:
Не в сети
Профиль  
 Добавлено: 2011-11-30 12:39 (спустя 23 минуты)
Top-releaser
Аватара пользователя
Стаж: 8 лет 9 месяцев
Сообщений: 479
Спасибок: 20190
Лайков: 16
FoTP
Благодарю! :)
_________________
Изображение
Изображение
Не в сети
Профиль  
 Добавлено: 2014-01-11 20:34 (спустя 2 года 1 месяц)
Аватара пользователя
Стаж: 7 лет 6 месяцев
Сообщений: 4
дайте скорости, пож!!!
Не в сети
Профиль  
 Добавлено: 2014-12-07 15:04 (спустя 10 месяцев)
Аватара пользователя
Стаж: 4 года
Возраст: 30
Сообщений: 14
Дайте мегабитиков...
Не в сети
Профиль  
Начать новую темуОтветить на тему  [ Сообщений: 5 ] 
Вы не можете начинать темы
Вы не можете отвечать на сообщения
Вы не можете редактировать свои сообщения
Вы не можете удалять свои сообщения