Правила форума

  • В этом разделе создание новых тем Запрещено.
  • Для создания новых тем пользуйтесь Корневым разделом DVD и HD фильмы.
Начать новую темуОтветить на тему  [ Сообщений: 2 ] 
Торрент файл
Размер: 15.42 GB • Зарегистрирован: 3 года 10 месяцев • Статус: Проверено
Скачан: 20 раз • Желающих скачать: 0 • Поблагодарили: 10 раз
 Раздают: 0  |  0 KB/s  ]   Качают: 0  |  0 KB/s  ] 
 Полного источника не было 2 года 1 месяц 
Сообщения
 Добавлено: 2013-01-24 10:57
Модератор релиз-группы
Аватара пользователя
Стаж: 7 лет 8 месяцев
Возраст: 29
Сообщений: 9789
Спасибок: 23733
Лайков: 103
Изображение

Эта дурацкая любовь
Crazy, Stupid, Love.


Год выпуска: 2011
Страна: США
Слоган: «This Is Crazy»
Жанр: мелодрама, комедия
Продолжительность: 01:58:07
Перевод: Профессиональный (полное дублирование)
Режиссер: Гленн Фикарра, Джон Рекуа
Сценарий: Дэн Фогельман
Продюсер: Стив Карелл, Денис Ди Нови, Эрин Браун, Вэнс ДеДженерес, Джеффри Харлэкер
Оператор: Эндрю Данн
Композитор: Кристоф Бек, Ник Урата
В ролях: Стив Карелл, Райан Гослинг, Джулианна Мур, Эмма Стоун, Аналей Типтон, Джона Бобо, Мариса Томей, Бет Литтлфорд, Джон Кэрролл Линч, Кевин Бейкон, Джои Кинг, Джанин Беррис
Бюджет: $50 000 000
Сборы в США: $84 351 197
Сборы в России: $2 077 144
Сборы в мире: $142 851 197
Мировая премьера: 28 июля 2011
Релиз на DVD: 1 декабря 2011, «CP-Digital»
Релиз на Blu-ray: 1 декабря 2011, «CP-Digital»
Описание: У Кола Уивера, пуританских взглядов семьянина в возрасте «чуть-чуть за сорок», не жизнь, а мечта - хорошая работа, прекрасный дом, замечательные дети и брак со школьной возлюбленной. Но когда Кол узнает, что его жена Эмили изменила ему и хочет развода, его «идеальная» жизнь быстро рушится. Хуже того, говоря современным языком, Кол, который уже пару десятилетий не ходил на свидания, являет собой настоящего «лоха».
И вот, проводя все свое свободное время в баре в дурном расположении духа, несчастный Кол становится протеже обаятельного («чуть-чуть за тридцать») Джейкоба Палмера. Пытаясь помочь Колу забыть жену и начать собственную жизнь, Джейкоб открывает ему глаза на многочисленные возможности, открывающиеся перед ним: кокетливые женщины, крепкие напитки и чувство стиля, которое нельзя найти в дешевой парикмахерской или магазине распродаж.
Кол и Эмили - не единственные, кто ищут любовь, причем, возможно, совершенно не там, где нужно: тринадцатилетний Робби, сын Кола, сходит с ума по своей семнадцатилетней няне Джессике, а та скрывает свою влюбленность в его отца. И несмотря на новый облик и новые завоевания на любовном фронте, единственное, что Кол не может «переупрямить», - это собственное сердце, которое ведет его туда, с чего все когда-то начиналось.


Изображение User Rating: 7.576 (33 521)
Изображение User Rating: 7.50 (176 577)
MPAA: PG-13 - Детям до 13 лет просмотр не желателен
Раздача группы: Изображение
Изображение
Качество: BD-Remux, 1080p
Формат: MKV
Видео: AVC; 1920x1080 (16:9); 23,976 fps
Аудио №1: русский; AC3; 640 Kbps; CBR; 6 ch
Аудио №2: украинский; AC3; 384 Kbps; CBR; 6 ch
Аудио №3: DTS-HD; VBR; 6 ch; 24 bit

Субтитры №1: русские
Субтитры №2: русские
Субтитры №3: украинские
Субтитры №4: английские

mediainfo
Общее
Уникальный идентификатор : 206074474058487841435800521744170952701 (0x9B088002612AFBD4926211EF15D527FD)
Полное имя : D:\TORRENT\Eta-durackaja-ljubov.2011.MPEG-4-AVC.BluRay-Remux(1080p).mkv
Формат : Matroska
Размер файла : 15,4 Гбайт
Продолжительность : 1 ч. 58 м.
Общий поток : 18,7 Мбит/сек
Название фильма : --SCHUMAHER--
Дата кодирования : UTC 2011-11-29 22:29:05
Программа кодирования : mkvmerge v5.0.1 ('Es ist Sommer') built on Oct 9 2011 11:55:43
Библиотека кодирования : libebml v1.2.2 + libmatroska v1.3.0

Видео
Идентификатор : 1
Формат : AVC
Формат/Информация : Advanced Video Codec
Профиль формата : High@L4.0
Параметр CABAC формата : Да
Параметр ReFrames формата : 2 кадра
Параметры GOP формата : M=1, N=20
Идентификатор кодека : V_MPEG4/ISO/AVC
Продолжительность : 1 ч. 58 м.
Вид битрейта : Переменный
Битрейт : 14,9 Мбит/сек
Ширина : 1920 пикс.
Высота : 1080 пикс.
Соотношение сторон : 16:9
Частота кадров : 23,976 кадр/сек
Цветовое пространство : YUV
Подвыборка цветности : 4:2:0
Битовая глубина : 8 бит
Тип развёртки : Прогрессивная
Бит/(Пиксели*Кадры) : 0.299
Размер потока : 12,3 Гбайт (80%)
Язык : English

Аудио #1
Идентификатор : 2
Формат : AC-3
Формат/Информация : Audio Coding 3
Расширение режима : CM (complete main)
Идентификатор кодека : A_AC3
Продолжительность : 1 ч. 58 м.
Вид битрейта : Постоянный
Битрейт : 640 Кбит/сек
Каналы : 6 каналов
Расположение каналов : Front: L C R, Side: L R, LFE
Частота : 48,0 КГц
Битовая глубина : 16 бит
Метод сжатия : С потерями
Размер потока : 541 Мбайт (3%)
Язык : Russian

Аудио #2
Идентификатор : 3
Формат : AC-3
Формат/Информация : Audio Coding 3
Расширение режима : CM (complete main)
Идентификатор кодека : A_AC3
Продолжительность : 1 ч. 58 м.
Вид битрейта : Постоянный
Битрейт : 384 Кбит/сек
Каналы : 6 каналов
Расположение каналов : Front: L C R, Side: L R, LFE
Частота : 48,0 КГц
Битовая глубина : 16 бит
Метод сжатия : С потерями
Размер потока : 324 Мбайт (2%)
Язык : Ukrainian

Аудио #3
Идентификатор : 4
Формат : DTS
Формат/Информация : Digital Theater Systems
Профиль формата : MA / Core
Идентификатор кодека : A_DTS
Продолжительность : 1 ч. 58 м.
Вид битрейта : Переменный
Битрейт : 2413 Кбит/сек / 1510 Кбит/сек
Каналы : 6 каналов
Расположение каналов : Front: L C R, Side: L R, LFE
Частота : 48,0 КГц
Битовая глубина : 24 бит
Метод сжатия : Без потерь / Lossy
Язык : English

Текст #1
Идентификатор : 5
Формат : PGS
Режим смешивания : zlib
Идентификатор кодека : S_HDMV/PGS
Идентификатор кодека/Информация : The same subtitle format used on BDs/HD-DVDs
Язык : Russian

Текст #2
Идентификатор : 6
Формат : PGS
Режим смешивания : zlib
Идентификатор кодека : S_HDMV/PGS
Идентификатор кодека/Информация : The same subtitle format used on BDs/HD-DVDs
Язык : Russian

Текст #3
Идентификатор : 7
Формат : PGS
Режим смешивания : zlib
Идентификатор кодека : S_HDMV/PGS
Идентификатор кодека/Информация : The same subtitle format used on BDs/HD-DVDs
Язык : Ukrainian

Текст #4
Идентификатор : 8
Формат : PGS
Режим смешивания : zlib
Идентификатор кодека : S_HDMV/PGS
Идентификатор кодека/Информация : The same subtitle format used on BDs/HD-DVDs
Язык : English

Меню
00:00:00.000 : en:
00:08:25.713 : en:
00:20:56.421 : en:
00:28:40.552 : en:
00:38:32.560 : en:
00:51:33.673 : en:
01:02:41.007 : en:
01:11:00.547 : en:
01:21:12.117 : en:
01:28:07.198 : en:
01:40:51.962 : en:
01:48:00.807 : en:
01:52:20.525 : en:


Свернуть
Скриншоты

Изображение
Изображение
Изображение
Изображение
Изображение
Изображение
Изображение
Изображение
Свернуть
Не в сети
Профиль  
 Добавлено: 2013-04-05 09:11 (спустя 2 месяца 11 дней)
Стаж: 7 лет 3 месяца
Сообщений: 1
Дайте скорости, пожалуйста.


Тема поднималась пользователем volkov2009 2013-04-05 09:11.
Не в сети
Профиль  
Начать новую темуОтветить на тему  [ Сообщений: 2 ] 
Вы не можете начинать темы
Вы не можете отвечать на сообщения
Вы не можете редактировать свои сообщения
Вы не можете удалять свои сообщения