Правила форума

  • В этом разделе создание новых тем Запрещено.
  • Для создания новых тем пользуйтесь Корневым разделом DVD и HD фильмы.
Начать новую темуОтветить на тему  [ Сообщений: 2 ] 
Торрент файл
Размер: 7.44 GB • Зарегистрирован: 5 лет • Статус: Проверено
Скачан: 40 раз • Желающих скачать: 0 • Поблагодарили: 13 раз
 Раздают: 0  |  0 KB/s  ]   Качают: 0  |  0 KB/s  ] 
 Полного источника не было 2 года 6 месяцев 
Сообщения
 Добавлено: 2011-11-30 00:00
DVD Release Group
Аватара пользователя
Стаж: 7 лет 1 месяц
Сообщений: 3559
Спасибок: 247386
Лайков: 1018
Эта - дурацкая - любовь

Crazy, Stupid, Love


Изображение


Год выпуска: 2011
Страна: США, Carousel Productions
Жанр: Драма, мелодрама, комедия
Продолжительность: 01:58:06
Перевод: Профессиональный (полное дублирование)
Субтитры: Английские
Режиссер: Гленн Фикарра, Джон Рекуа
В ролях: Стив Карелл, Райан Гослинг, Джулианна Мур, Эмма Стоун, Аналей Типтон, Йон Бобо, Джои Кинг, Мариса Томей, Бет Литлфорд, Джон Кэрролл Линч, Кевин Бейкон
Описание: У Кола Уивера, пуританских взглядов семьянина в возрасте «чуть-чуть за сорок», не жизнь, а мечта — хорошая работа, прекрасный дом, замечательные дети и брак со школьной возлюбленной. Но когда Кол узнает, что его жена Эмили изменила ему и хочет развода, его «идеальная» жизнь быстро рушится. Хуже того, говоря современным языком, Кол, который уже пару десятилетий не ходил на свидания, являет собой настоящего «лоха».
Кинопоиск: 7.729 (3440)
IMDb: 7.80 (19874)
Качество: BDRip 720p
Формат: MKV
Видео кодек: H.264
Аудио кодек: AC3
Видео: 1280x534 (16:9), 23.98 fps, 8000 kbps, 0.488Qf
Аудио:
Аудио Rus: 48kHz 6 ch, 384kbps
Аудио Eng: 48kHz 6 ch, 640kbps
"MediaInfo"

Общее
Уникальный идентификатор : 240895562363875733159903287947600471575 (0xB53ACC363DD0CEF285A2228668DA2617)
Полное имя : Эта - дурацкая - любовь mkv\Эта - дурацкая - любовь.mkv
Формат : Matroska
Версия формата : Version 2
Размер файла : 7,44 Гбайт
Продолжительность : 1 ч. 58 м.
Общий поток : 9022 Кбит/сек
Дата кодирования : UTC 2011-11-29 14:51:06
Программа кодирования : mkvmerge v4.5.0 ('Speed of Light') built on Feb 15 2011 12:50:20
Библиотека кодирования : libebml v1.2.0 + libmatroska v1.1.0

Видео
Идентификатор : 1
Формат : AVC
Формат/Информация : Advanced Video Codec
Профиль формата : High@L4.1
Параметр CABAC формата : Да
Параметр ReFrames формата : 4 кадра
Режим смешивания : Header stripping
Идентификатор кодека : V_MPEG4/ISO/AVC
Продолжительность : 1 ч. 58 м.
Битрейт : 8000 Кбит/сек
Ширина : 1280 пикселей
Высота : 534 пикселя
Соотношение сторон : 2,40:1
Частота кадров : 23,976 кадра/сек
Цветовое пространство : YUV
Субдискретизация насыщенности : 4:2:0
Битовая глубина : 8 бит
Тип развёртки : Прогрессивная
Бит/(Пиксели*Кадры) : 0.488
Размер потока : 6,45 Гбайт (87%)
Библиотека кодирования : x264 core 116 r2057 0ba8a9c
Настройки программы : cabac=1 / ref=3 / deblock=1:-3:-3 / analyse=0x3:0x113 / me=tesa / subme=7 / psy=1 / psy_rd=1.10:0.10 / mixed_ref=1 / me_range=32 / chroma_me=1 / trellis=1 / 8x8dct=1 / cqm=0 / deadzone=21,11 / fast_pskip=0 / chroma_qp_offset=-3 / threads=18 / sliced_threads=0 / nr=0 / decimate=0 / interlaced=0 / bluray_compat=0 / constrained_intra=0 / bframes=7 / b_pyramid=2 / b_adapt=1 / b_bias=0 / direct=3 / weightb=1 / open_gop=0 / weightp=2 / keyint=250 / keyint_min=23 / scenecut=40 / intra_refresh=0 / rc=2pass / mbtree=0 / bitrate=8000 / ratetol=1.0 / qcomp=0.60 / qpmin=0 / qpmax=69 / qpstep=4 / cplxblur=20.0 / qblur=0.5 / ip_ratio=1.40 / pb_ratio=1.30 / aq=1:0.60
Язык : English

Аудио #1
Идентификатор : 2
Формат : AC-3
Формат/Информация : Audio Coding 3
Расширение режима : CM (complete main)
Режим смешивания : Header stripping
Идентификатор кодека : A_AC3
Продолжительность : 1 ч. 58 м.
Вид битрейта : Постоянный
Битрейт : 384 Кбит/сек
Каналы : 6 каналов
Расположение каналов : Front: L C R, Side: L R, LFE
Частота : 48,0 КГц
Битовая глубина : 16 бит
Метод сжатия : С потерями
Задержка видео : 8 мс.
Размер потока : 324 Мбайт (4%)
Язык : Russian

Аудио #2
Идентификатор : 3
Формат : AC-3
Формат/Информация : Audio Coding 3
Расширение режима : CM (complete main)
Режим смешивания : Header stripping
Идентификатор кодека : A_AC3
Продолжительность : 1 ч. 58 м.
Вид битрейта : Постоянный
Битрейт : 640 Кбит/сек
Каналы : 6 каналов
Расположение каналов : Front: L C R, Side: L R, LFE
Частота : 48,0 КГц
Битовая глубина : 16 бит
Метод сжатия : С потерями
Размер потока : 541 Мбайт (7%)
Язык : English

Текст
Идентификатор : 4
Формат : UTF-8
Идентификатор кодека : S_TEXT/UTF8
Идентификатор кодека/Информация : UTF-8 Plain Text
Язык : English

Меню
00:00:00.000 : en:00:00:00.000
00:08:25.714 : en:00:08:25.714
00:20:56.422 : en:00:20:56.422
00:28:40.552 : en:00:28:40.552
00:38:32.560 : en:00:38:32.560
00:51:33.674 : en:00:51:33.674
01:02:41.007 : en:01:02:41.007
01:11:00.548 : en:01:11:00.548
01:21:12.117 : en:01:21:12.117
01:28:07.199 : en:01:28:07.199
01:40:51.963 : en:01:40:51.963
01:48:00.808 : en:01:48:00.808
01:52:20.525 : en:01:52:20.525
01:58:05.787 : en:01:58:05.787
Свернуть
"Скриншоты"

Изображение
Изображение
Изображение
Изображение
Изображение
Свернуть
Раздача группы:
Изображение
В сети
Профиль  
 Добавлено: 2013-01-24 13:22 (спустя 1 год 1 месяц)
Аватара пользователя
Стаж: 5 лет 6 месяцев
Возраст: 23
Сообщений: 484
Спасибок: 1403
Лайков: 1
встаньте на раздачю!
Не в сети
Профиль  
Начать новую темуОтветить на тему  [ Сообщений: 2 ] 
Вы не можете начинать темы
Вы не можете отвечать на сообщения
Вы не можете редактировать свои сообщения
Вы не можете удалять свои сообщения