Правила форума

  • В этом разделе создание новых тем Запрещено.
  • Для создания новых тем пользуйтесь Корневым разделом DVD и HD фильмы.
Начать новую темуОтветить на тему  [ Сообщений: 2 ] 
Торрент файл
Размер: 4.68 GB • Зарегистрирован: 5 лет 10 месяцев • Статус: Проверено
Скачан: 40 раз • Желающих скачать: 0 • Поблагодарили: 10 раз
 Раздают: 0  |  0 KB/s  ]   Качают: 0  |  0 KB/s  ] 
 Полного источника не было 3 года 1 месяц 
Сообщения
 Добавлено: 2011-02-03 11:50
Аватара пользователя
Стаж: 6 лет
Возраст: 26
Сообщений: 113
Спасибок: 691
Это очень забавная история / It's Kind of a Funny Story
«Sometimes what's in your head isn't as crazy as you think.»

Изображение


Год выпуска: 2010
Страна: США, Focus Features
Жанр: Драма, Комедия
Продолжительность: 01:41:18
Перевод: Профессиональное (многоголосое)
Режиссёр: Анна Боден, Райан Флек
Сценарист: Анна Боден, Райан Флек, Нед Виззини
Продюсер: Патрик Бэйкер, Бен Браунинг, Майкл Мехер
Оператор: Андрий Парех
Композитор: Broken-Social-Scene
В ролях: Кейр Гилкрист, Дана ДеВестерн, Эмма Робертс, Лорен Грэм, Джим Гэффиган, Карен Чилтон, Зак Галифианакис, Аасиф Мандви, Джаред Голдштейн, Алан Айсинберг
Описание: Погруженный в клиническую депрессию подросток получает шанс на исцеление.
Изображение 8.1/10 (106 votes)
Изображение 7.2/10 (3,166 votes)

Релиз Группы: Изображение

Раздача Группы: Изображение

Качество: BDRip, 720p
Формат: MKV
Видео: 4653 kb/s, 1280x688
Аудио #1: Russian: AC3, 448 kb/s (6 ch)
Аудио #2: English: DTS, 1510 kb/s (6 ch)
Субтитры: English

Изображение

Mediainfo
Общее
Уникальный идентификатор : 250884676013987079471126770935426924931 (0xBCBEA18A0609B8D497A1B413AD534183)
Полное имя : E:\Загрузки с Utorrent\Eto.ochen.zabavnaya.istoriya.2010.BDRip.720p.ELEKTRI4KA.mkv
Формат : Matroska
Размер файла : 4,68 Гбайт
Продолжительность : 1 ч. 41 м.
Общий поток : 6611 Кбит/сек
Дата кодирования : UTC 2011-02-02 16:08:22
Программа кодирования : mkvmerge v3.4.0 ('Rapunzel') сборка от May 15 2010 09:38:20
Библиотека кодирования : libebml v0.8.0 + libmatroska v0.9.0

Видео
Идентификатор : 1
Формат : AVC
Формат/Информация : Advanced Video Codec
Профиль формата : High@L4.1
Параметр CABAC формата : Да
Параметр ReFrames формата : 5 кадры
Параметры GOP формата : M=4, N=16
Идентификатор кодека : V_MPEG4/ISO/AVC
Продолжительность : 1 ч. 41 м.
Битрейт : 4653 Кбит/сек
Ширина : 1280 пикс.
Высота : 688 пикс.
Соотношение сторон : 1,860
Частота кадров : 23,976 кадр/сек
Цветовое пространство : YUV
Подвыборка цветности : 4:2:0
Битовая глубина : 8 бит
Тип развёртки : Прогрессивная
Бит/(Пиксели*Кадры) : 0.220
Размер потока : 3,20 Гбайт (68%)
Библиотека кодирования : x264 core 112 r1867 22bfd31
Настройки программы : cabac=1 / ref=5 / deblock=1:0:0 / analyse=0x3:0x113 / me=umh / subme=7 / psy=1 / psy_rd=1.00:0.15 / mixed_ref=1 / me_range=16 / chroma_me=1 / trellis=1 / 8x8dct=1 / cqm=0 / deadzone=21,11 / fast_pskip=0 / chroma_qp_offset=-3 / threads=12 / sliced_threads=0 / nr=0 / decimate=1 / interlaced=0 / constrained_intra=0 / bframes=3 / b_pyramid=2 / b_adapt=1 / b_bias=0 / direct=1 / weightb=1 / open_gop=0 / weightp=2 / keyint=250 / keyint_min=23 / scenecut=40 / intra_refresh=0 / rc_lookahead=40 / rc=2pass / mbtree=1 / bitrate=4653 / ratetol=1.0 / qcomp=0.60 / qpmin=0 / qpmax=51 / qpstep=4 / cplxblur=20.0 / qblur=0.5 / ip_ratio=1.40 / aq=1:1.00

Аудио #1
Идентификатор : 2
Формат : AC-3
Формат/Информация : Audio Coding 3
Расширение режима : CM (complete main)
Идентификатор кодека : A_AC3
Продолжительность : 1 ч. 41 м.
Вид битрейта : Постоянный
Битрейт : 448 Кбит/сек
Канал(ы) : 6 канала(ов)
Расположение каналов : Front: L C R, Side: L R, LFE
Частота : 48,0 КГц
Битовая глубина : 16 бит
Метод сжатия : С потерями
Размер потока : 325 Мбайт (7%)
Язык : Russian

Аудио #2
Идентификатор : 3
Формат : DTS
Формат/Информация : Digital Theater Systems
Идентификатор кодека : A_DTS
Продолжительность : 1 ч. 41 м.
Вид битрейта : Постоянный
Битрейт : 1510 Кбит/сек
Канал(ы) : 6 канала(ов)
Расположение каналов : Front: L C R, Side: L R, LFE
Частота : 48,0 КГц
Битовая глубина : 24 бит
Метод сжатия : С потерями
Задержка видео : 11 мс.
Размер потока : 1,07 Гбайт (23%)
Язык : English

Текст
Идентификатор : 4
Формат : UTF-8
Идентификатор кодека : S_TEXT/UTF8
Идентификатор кодека/Информация : UTF-8 Plain Text
Язык : English
Свернуть

Скриншоты
Изображение

Изображение

Изображение

Изображение
Свернуть
Не в сети
Профиль  
 Добавлено: 2011-02-03 17:48 (спустя 5 часов)
Аватара пользователя
Стаж: 9 лет
Сообщений: 478
Спасибок: 923
Лайков: 1
спасибо. налетаем
Не в сети
Профиль  
Начать новую темуОтветить на тему  [ Сообщений: 2 ] 
Вы не можете начинать темы
Вы не можете отвечать на сообщения
Вы не можете редактировать свои сообщения
Вы не можете удалять свои сообщения