Правила форума

  • В этом разделе создание новых тем Запрещено.
  • Для создания новых тем пользуйтесь Корневым разделом DVD и HD фильмы.
Начать новую темуОтветить на тему  [ Сообщений: 4 ] 
Торрент файл
Размер: 4.62 GB • Зарегистрирован: 2 года 7 месяцев • Статус: Проверено
Скачан: 126 раз • Желающих скачать: 0 • Поблагодарили: 42 раза
 Раздают: 0  |  0 KB/s  ]   Качают: 0  |  0 KB/s  ] 
 Полного источника не было 1 день 21 час 
Сообщения
 Добавлено: 2014-04-25 06:39
DVD Release Group
Аватара пользователя
Стаж: 7 лет 1 месяц
Сообщений: 3559
Спасибок: 247462
Лайков: 1020
Этот неловкий момент

That Awkward Moment


Изображение


Год выпуска: 2014
Страна: США
Жанр: Мелодрама, комедия
Продолжительность: 01:34:31
Перевод: Профессиональный (полное дублирование)
Режиссер: Том Гормикэн
В ролях: Зак Эфрон, Майлз Теллер, Майкл Б. Джордан, Имоджен Путс, Маккензи Дэвис, Джессика Лукас, Эддисон Тимлин, Джош Пэйс, Эвелина Обоза, Карен Людвиг
Описание: Джейсон, Дэниел и Майкл — типичные обитатели Манхеттена, красивые остроумные парни. После того, как одного из них бросает подружка, они клянутся больше никогда не заводить с девушками серьезных отношений. Но очень скоро, после кучи «неловких моментов», они встречают настоящую любовь. И как теперь быть с дружеской сделкой?
Изображение Изображение
Качество: BDRip 720p
Формат: MKV
Видео кодек: H.264
Аудио кодек: AC3, DTS
Видео: 1280x536 23.98fps 5106kbps
Аудио:
Audio Rus: AC3 48kHz 6ch 384kbps
Audio Eng: DTS 48kHz 6ch 1510kbps
"MediaInfo"
Формат : Matroska
Версия формата : Version 4 / Version 2
Размер файла : 4,62 Гбайт
Продолжительность : 1 ч. 34 м.
Общий поток : 7001 Кбит/сек
Дата кодирования : UTC 2014-04-24 21:16:56
Программа кодирования : mkvmerge v6.5.0 ('Isn't she lovely') built on Oct 20 2013 12:50:05
Библиотека кодирования : libebml v1.3.0 + libmatroska v1.4.1

Видео
Идентификатор : 1
Формат : AVC
Формат/Информация : Advanced Video Codec
Профиль формата : High@L4.1
Параметр CABAC формата : Да
Параметр ReFrames формата : 5 кадров
Идентификатор кодека : V_MPEG4/ISO/AVC
Продолжительность : 1 ч. 34 м.
Битрейт : 5106 Кбит/сек
Ширина : 1280 пикселей
Высота : 536 пикселей
Соотношение сторон : 2,40:1
Частота кадров : 23,976 кадра/сек
Цветовое пространство : YUV
Субдискретизация насыщенности : 4:2:0
Битовая глубина : 8 бит
Тип развёртки : Прогрессивная
Бит/(Пиксели*Кадры) : 0.310
Размер потока : 3,28 Гбайт (71%)
Библиотека кодирования : x264 core 142 r2431 ac76440
Настройки программы : cabac=1 / ref=5 / deblock=1:0:0 / analyse=0x3:0x133 / me=umh / subme=7 / psy=1 / psy_rd=1.00:0.00 / mixed_ref=1 / me_range=16 / chroma_me=1 / trellis=1 / 8x8dct=1 / cqm=0 / deadzone=21,11 / fast_pskip=0 / chroma_qp_offset=-2 / threads=18 / lookahead_threads=3 / sliced_threads=0 / nr=0 / decimate=1 / interlaced=0 / bluray_compat=0 / constrained_intra=0 / bframes=3 / b_pyramid=2 / b_adapt=1 / b_bias=0 / direct=1 / weightb=1 / open_gop=0 / weightp=2 / keyint=250 / keyint_min=23 / scenecut=40 / intra_refresh=0 / rc_lookahead=40 / rc=2pass / mbtree=1 / bitrate=5106 / ratetol=1.0 / qcomp=0.60 / qpmin=0 / qpmax=69 / qpstep=4 / cplxblur=20.0 / qblur=0.5 / ip_ratio=1.40 / aq=1:1.00
Язык : English
Default : Да
Forced : Нет

Аудио #1
Идентификатор : 2
Формат : AC-3
Формат/Информация : Audio Coding 3
Расширение режима : CM (complete main)
Идентификатор кодека : A_AC3
Продолжительность : 1 ч. 34 м.
Вид битрейта : Постоянный
Битрейт : 384 Кбит/сек
Каналы : 6 каналов
Расположение каналов : Front: L C R, Side: L R, LFE
Частота : 48,0 КГц
Битовая глубина : 16 бит
Метод сжатия : С потерями
Размер потока : 260 Мбайт (5%)
Default : Да
Forced : Нет

Аудио #2
Идентификатор : 3
Формат : DTS
Формат/Информация : Digital Theater Systems
Идентификатор кодека : A_DTS
Продолжительность : 1 ч. 34 м.
Вид битрейта : Постоянный
Битрейт : 1510 Кбит/сек
Каналы : 6 каналов
Расположение каналов : Front: L C R, Side: L R, LFE
Частота : 48,0 КГц
Битовая глубина : 24 бит
Метод сжатия : С потерями
Размер потока : 1021 Мбайт (22%)
Язык : English
Default : Нет
Forced : Нет

Меню
00:00:00.000 : en:00:00:00.000
00:05:35.252 : en:00:05:35.252
00:11:40.658 : en:00:11:40.658
00:17:15.534 : en:00:17:15.534
00:23:20.649 : en:00:23:20.649
00:30:05.637 : en:00:30:05.637
00:36:32.607 : en:00:36:32.607
00:42:17.577 : en:00:42:17.577
00:49:23.127 : en:00:49:23.127
00:55:55.936 : en:00:55:55.936
01:02:36.211 : en:01:02:36.211
01:06:40.079 : en:01:06:40.079
01:09:56.734 : en:01:09:56.734
01:16:02.850 : en:01:16:02.850
01:22:59.349 : en:01:22:59.349
01:28:29.304 : en:01:28:29.304
Свернуть

"Скриншоты"
Изображение
Изображение
Изображение
Изображение
Изображение
Изображение
Изображение
Свернуть
 vitso нравится это.
В сети
Профиль  
 Добавлено: 2014-11-29 13:16 (спустя 7 месяцев)
Аватара пользователя
Стаж: 3 года 3 месяца
Возраст: 35
Сообщений: 37
сейчас заценим.
Не в сети
Профиль  
 Добавлено: 2014-11-30 03:07 (спустя 13 часов)
Аватара пользователя
Стаж: 3 года 3 месяца
Возраст: 35
Сообщений: 37
думал качаю ржачную комедию типа "муви 43", а оказалось молодёжная мелодрама на тему "секс-любовь-отношения". не качайте никто!!!! позорнячий фильм. удаляю раздачу.
Не в сети
Профиль  
 Добавлено: 2015-10-24 23:23 (спустя 10 месяцев)
Аватара пользователя
Стаж: 6 лет 6 месяцев
Сообщений: 19961
Спасибок: 721
Лайков: 461

karapuzik_nnov:

удаляю раздачу.
:sh_ok: :sh_ok:

Добавлено спустя 21 секунда:

karapuzik_nnov:

(спустя 13 часов
:hi_hi_hi:
_________________
It was I'am ... :jn_pu_sk:
Медали и Ордена
ИзображениеИзображение
Свернуть
В сети
Профиль  
Начать новую темуОтветить на тему  [ Сообщений: 4 ] 
Вы не можете начинать темы
Вы не можете отвечать на сообщения
Вы не можете редактировать свои сообщения
Вы не можете удалять свои сообщения