Правила форума

  • В этом разделе создание новых тем Запрещено.
  • Для создания новых тем пользуйтесь Корневым разделом DVD и HD фильмы.
Начать новую темуОтветить на тему  [ Сообщений: 6 ] 
Торрент файл
Размер: 25.42 GB • Зарегистрирован: 11 месяцев • Статус: Проверено
Скачан: 193 раза • Желающих скачать: 0 • Поблагодарили: 42 раза
 Раздают: 0  |  0 KB/s  ]   Качают: 0  |  0 KB/s  ] 
 Полного источника не было 27 минут 
Сообщения
 Добавлено: 2015-12-18 21:25
RG-ELEKTRO
Аватара пользователя
Стаж: 2 года 3 месяца
Сообщений: 7928
Спасибок: 53784
Лайков: 3304
Эверест / Everest


«Самое опасное место на планете»

Изображение


Год выпуска: 2015
Страна: США, Великобритания, Исландия (Universal Pictures)
Жанр: триллер, драма, приключения, биография
Продолжительность: 02:01:10
Перевод: Профессиональный (дубляж) (Лицензия Blu-ray EUR) + Оригинальная звуковая дорожка + |Feature Commentary with Director Baltasar Kormákur|
Субтитры: Russian (Forced), Russian, Ukrainian, English (SDH

Режиссёр: Бальтасар Кормакур
В ролях: Джейсон Кларк, Джош Бролин, Джейк Джилленхол, Сэм Уортингтон, Джон Хоукс, Майкл Келли, Ингвар Эггерт Сигюрдссон, Кира Найтли, Эмили Уотсон, Робин Райт
Описание: Эверест — великая неприступная гора, покорить вершину которой мечтают многие профессиональные альпинисты. Одна из экспедиций на ее вершину закончилась настоящей трагедией, однако этот факт не останавливает отважных альпинистов.

Опытный инструктор Роб Холл, собрав группу из лучших альпинистов, собирается совершить восхождение на самую высокую вершину планеты. Все эти люди полны мужества и отваги и они не остановятся ни перед чем, пока не поднимутся на вершину Эвереста. Но даже если эта гора покорится им, смогут ли они вернуться обратно живыми и невредимыми?..
Мировая премьера: 2 сентября 2015
Премьера в России: 24 сентября 2015
Бюджет: $55 000 000
Кассовые сборы: $202 394 678
Изображение Изображение
Качество: BDRemux 1080p
Формат: MKV
Видео кодек: MPEG-4 AVC
Аудио кодек: AC3 / DTS-HD MA
Видео: MPEG-4 AVC, 1920x1080 at 23.976 fps, ~25777 kbps avg
Аудио #1: 48 kHz, AC3, 3/2 (L,C,R,l,r) + LFE ch, ~448.00 kbps avg [Профессиональный (дубляж) |Blu-ray EUR| ]
Аудио #2: English: 48 kHz, DTS-HD MA 7.1, ~4887.00 kbps avg [Оригинальная звуковая дорожка]
Аудио #3: English: 48 kHz, AC3, 2/0 (L,R) ch, ~192.00 kbps avg [|Feature Commentary with Director Baltasar Kormákur|]
Субтитры: Russian (Forced), Russian, Ukrainian, English (SDH

"MI"
Общее
Уникальный идентификатор : 223460022699242560851783095964551315603 (0xA81CD5BC9880EE21B6310BA7118B8093)
Полное имя : Everest.2015.BDRemux.mkv
Формат : Matroska
Версия формата : Version 2
Размер файла : 25,4 Гбайт
Продолжительность : 2 ч. 1 м.
Режим общего битрейта : Переменный
Общий поток : 30,0 Мбит/сек
Дата кодирования : UTC 2015-12-18 13:58:59
Программа кодирования : mkvmerge v7.9.0 ('Birds') 64bit
Библиотека кодирования : libebml v1.3.1 + libmatroska v1.4.2

Видео
Идентификатор : 1
Формат : AVC
Формат/Информация : Advanced Video Codec
Профиль формата : High@L4.1
Параметр CABAC формата : Да
Параметр ReFrames формата : 4 кадра
Идентификатор кодека : V_MPEG4/ISO/AVC
Вид битрейта : Переменный
Максимальный битрейт : 30,0 Мбит/сек
Ширина : 1920 пикселей
Высота : 1080 пикселей
Соотношение сторон : 16:9
Режим частоты кадров : Переменный
Частота кадров в оригинале : 23,976 кадра/сек
Цветовое пространство : YUV
Субдискретизация насыщенности : 4:2:0
Битовая глубина : 8 бит
Тип развёртки : Прогрессивная
Default : Да
Forced : Нет

Аудио #1
Идентификатор : 2
Формат : AC-3
Формат/Информация : Audio Coding 3
Расширение режима : CM (complete main)
Параметр Endianness формата : Big
Идентификатор кодека : A_AC3
Продолжительность : 2 ч. 1 м.
Вид битрейта : Постоянный
Битрейт : 448 Кбит/сек
Каналы : 6 каналов
Расположение каналов : Front: L C R, Side: L R, LFE
Частота : 48,0 КГц
Метод сжатия : С потерями
Размер потока : 388 Мбайт (1%)
Язык : Russian
Default : Да
Forced : Нет

Аудио #2
Идентификатор : 3
Формат : TrueHD
Идентификатор кодека : A_TRUEHD
Продолжительность : 2 ч. 1 м.
Вид битрейта : Переменный
Максимальный битрейт : 8922 Кбит/сек
Каналы : 8 каналов
Расположение каналов : Front: L C R, Side: L R, Back: L R, LFE
Частота : 48,0 КГц
Метод сжатия : Без потерь
Язык : English
Default : Нет
Forced : Нет

Аудио #3
Идентификатор : 4
Формат : AC-3
Формат/Информация : Audio Coding 3
Профиль формата : Dolby Digital
Расширение режима : CM (complete main)
Параметр Endianness формата : Big
Идентификатор кодека : A_AC3
Продолжительность : 2 ч. 1 м.
Вид битрейта : Постоянный
Битрейт : 192 Кбит/сек
Каналы : 2 канала
Расположение каналов : Front: L R
Частота : 48,0 КГц
Метод сжатия : С потерями
Размер потока : 166 Мбайт (1%)
Заголовок : AC3 2.0 @ 192 kbps - Feature Commentary with Director Baltasar Kormákur
Язык : English
Default : Нет
Forced : Нет

Текст #1
Идентификатор : 5
Формат : UTF-8
Идентификатор кодека : S_TEXT/UTF8
Идентификатор кодека/Информация : UTF-8 Plain Text
Заголовок : Forced
Язык : Russian
Default : Да
Forced : Нет

Текст #2
Идентификатор : 6
Формат : UTF-8
Идентификатор кодека : S_TEXT/UTF8
Идентификатор кодека/Информация : UTF-8 Plain Text
Язык : Russian
Default : Нет
Forced : Нет

Текст #3
Идентификатор : 7
Формат : UTF-8
Идентификатор кодека : S_TEXT/UTF8
Идентификатор кодека/Информация : UTF-8 Plain Text
Язык : Ukrainian
Default : Нет
Forced : Нет

Текст #4
Идентификатор : 8
Формат : UTF-8
Идентификатор кодека : S_TEXT/UTF8
Идентификатор кодека/Информация : UTF-8 Plain Text
Заголовок : SDH
Язык : English
Default : Нет
Forced : Нет

Меню
00:00:00.000 : en:00:00:00.000
00:05:12.145 : en:00:05:12.145
00:09:36.075 : en:00:09:36.075
00:15:13.162 : en:00:15:13.162
00:20:58.424 : en:00:20:58.424
00:26:30.714 : en:00:26:30.714
00:33:15.118 : en:00:33:15.118
00:40:23.755 : en:00:40:23.755
00:47:23.382 : en:00:47:23.382
00:52:14.590 : en:00:52:14.590
00:57:49.174 : en:00:57:49.174
01:01:54.794 : en:01:01:54.794
01:07:22.080 : en:01:07:22.080
01:15:40.578 : en:01:15:40.578
01:21:03.901 : en:01:21:03.901
01:26:59.589 : en:01:26:59.589
01:32:39.137 : en:01:32:39.137
01:41:20.449 : en:01:41:20.449
01:46:47.651 : en:01:46:47.651
01:54:06.465 : en:01:54:06.465
Свернуть

Скриншоты
Изображение
Изображение
Изображение
Изображение
Свернуть
Изображение


Изображение Изображение
Не в сети
Профиль  
 Добавлено: 2015-12-20 20:07 (спустя 1 день 22 часа)
Аватара пользователя
Стаж: 8 лет 1 месяц
Сообщений: 346
Спасибок: 85
Лайков: 7
А BDrip будет гигов на 10?)
_________________
Будь проще, и жить будет легче!
Не в сети
Профиль  
 Добавлено: 2015-12-20 20:34 (спустя 27 минут)
RG-ELEKTRO
Аватара пользователя
Стаж: 2 года 3 месяца
Сообщений: 7928
Спасибок: 53784
Лайков: 3304

VORTEX_1992:

А BDrip будет гигов на 10?)
Эверест на 8 гигов, могу еще на 11 с лишним залить, если надо
_________________
Не ищите меня в "ВКонтакте", в "Одноклассниках" меня нет - я на трекерах сижу!


Последний раз редактировалось Оля 88 2015-12-20 21:48, всего редактировалось 1 раз.
Не в сети
Профиль  
 Добавлено: 2015-12-20 21:19 (спустя 44 минуты)
Аватара пользователя
Стаж: 8 лет 7 месяцев
Возраст: 28
Сообщений: 205
Лайков: 1
вот на 11 гигов самое то будет.
_________________
Intel Core i7 860 3,36 , Asus Maximus Formula III, 8 Gb DDR3 1600 оперативы, GTX 580.
Не в сети
Профиль  
 Добавлено: 2015-12-20 21:31 (спустя 12 минут)
RG-ELEKTRO
Аватара пользователя
Стаж: 2 года 3 месяца
Сообщений: 7928
Спасибок: 53784
Лайков: 3304

Stomatorg:

вот на 11 гигов самое то будет.
Эверест на 11 гигов - пожалуйста. :)
_________________
Не ищите меня в "ВКонтакте", в "Одноклассниках" меня нет - я на трекерах сижу!
Не в сети
Профиль  
 Добавлено: 2015-12-21 21:17 (спустя 23 часа)
Аватара пользователя
Стаж: 8 лет 1 месяц
Сообщений: 346
Спасибок: 85
Лайков: 7
да-да, 11 гигов тоже годится)
_________________
Будь проще, и жить будет легче!
Не в сети
Профиль  
Начать новую темуОтветить на тему  [ Сообщений: 6 ] 
Вы не можете начинать темы
Вы не можете отвечать на сообщения
Вы не можете редактировать свои сообщения
Вы не можете удалять свои сообщения