Правила форума

  • В этом разделе создание новых тем Запрещено.
  • Для создания новых тем пользуйтесь Корневым разделом DVD и HD фильмы.
Начать новую темуОтветить на тему  [ Сообщений: 4 ] 
Торрент файл
Размер: 15.89 GB • Зарегистрирован: 4 года • Статус: Проверено
Скачан: 128 раз • Желающих скачать: 0 • Поблагодарили: 36 раз
 Раздают: 0  |  0 KB/s  ]   Качают: 0  |  0 KB/s  ] 
 Полного источника не было 6 дней 
Сообщения
 Добавлено: 2012-12-06 16:44
Top-releaser
Аватара пользователя
Стаж: 8 лет 9 месяцев
Сообщений: 479
Спасибок: 20189
Лайков: 16
Изображение

Изображение

The Bourne Legacy


«В игре всегда несколько фигур»

Год выпуска: 2012
Страна: Изображение США; Universal Pictures
Жанр: Боевик, триллер, детектив, приключения
Продолжительность: 02:15:02
Перевод: Профессиональный (дублированный) [Лицензия], Оригинал
Субтитры: Russian (Forced), Russian, English, English (SDH), English (SDH, COLORED)

Режиссёр: Тони Гилрой / Tony Gilroy

В ролях: Джоан Аллен, Мари-Пьер Босежур, Майкл Беррессе, Майкл Чернас, Том Риис Фэррелл, Джон Фаррер, Альберт Финни, Скотт Гленн, Оскар Айзек, Стэйси Кич, Кристофер Манн, Эдвард Нортон, Майкл Пападжон, Джереми Реннер, Кори Столл, Нилайя Сан, Рэйчел Вайз

Описание: В игре всегда несколько фигур. Одна из них — Джейсон Борн, другая — совершенный агент Аарон Кросс. Их возможности безграничны. Но даже у идеального оружия бывают сбои…


Качество: BDRip 1080p R5
Формат: MKV

Видео: 1920x800 at 23.976 fps, x264@L4.1, 2pass, ~14.4 Mbps avg

Аудио 1: 48 kHz, DTS, 3/2 (L,C,R,l,r) + LFE ch, ~755.00 kbps avg [Дубляж]
Аудио 2: 48 kHz, DTS, 3/2 (L,C,R,l,r) + LFE ch, ~1510.00 kbps avg [Оригинал]
Аудио 3: 48 kHz, AC3, 2/0 (L,R) ch, ~192.00 kbps avg [Commentary with director/co-writer Tony Gilroy, co-writer Dan Gilroy, editor John Gilroy, director of photography Robert Elswit, second Unit director Dan Bradley and production designer Kevin Thompson]
Релиз : Изображение Раздача: Изображение


Изображение
MediaInfo

Общее
Уникальный идентификатор : 186309917439610044182988057782116575948 (0x8C29FC21F810A65BA29EEE815F366ACC)
Полное имя : C:\Users\Домашний\Desktop\The.Bourne.Legacy.2012.1080p.[nntt].mkv
Формат : Matroska
Размер файла : 15,9 Гбайт
Продолжительность : 2 ч. 15 м.
Общий поток : 16,8 Мбит/сек
Название фильма : The Bourne Legacy (2012) - Release for HDCLUB
Дата кодирования : UTC 2012-12-05 21:55:10
Программа кодирования : mkvmerge v3.4.0 ('Rapunzel') сборка от May 15 2010 09:38:20
Библиотека кодирования : libebml v0.8.0 + libmatroska v0.9.0

Видео
Идентификатор : 1
Формат : AVC
Формат/Информация : Advanced Video Codec
Профиль формата : High@L4.1
Параметр CABAC формата : Да
Параметр ReFrames формата : 5 кадры
Идентификатор кодека : V_MPEG4/ISO/AVC
Продолжительность : 2 ч. 15 м.
Битрейт : 14,4 Мбит/сек
Ширина : 1920 пикс.
Высота : 800 пикс.
Соотношение сторон : 2,40:1
Частота кадров : 23,976 кадр/сек
Цветовое пространство : YUV
Подвыборка цветности : 4:2:0
Битовая глубина : 8 бит
Тип развёртки : Прогрессивная
Бит/(Пиксели*Кадры) : 0.391
Размер потока : 13,3 Гбайт (83%)
Библиотека кодирования : x264 core 129 r2230 1cffe9f
Настройки программы : cabac=1 / ref=5 / deblock=1:-3:-3 / analyse=0x3:0x113 / me=umh / subme=11 / psy=1 / psy_rd=1.05:0.10 / mixed_ref=1 / me_range=48 / chroma_me=1 / trellis=2 / 8x8dct=1 / cqm=0 / deadzone=21,11 / fast_pskip=0 / chroma_qp_offset=-2 / threads=12 / lookahead_threads=2 / sliced_threads=0 / nr=0 / decimate=1 / interlaced=0 / bluray_compat=0 / constrained_intra=0 / bframes=7 / b_pyramid=2 / b_adapt=2 / b_bias=0 / direct=3 / weightb=1 / open_gop=0 / weightp=2 / keyint=250 / keyint_min=23 / scenecut=40 / intra_refresh=0 / rc_lookahead=40 / rc=2pass / mbtree=0 / bitrate=14393 / ratetol=1.0 / qcomp=0.70 / qpmin=0 / qpmax=69 / qpstep=4 / cplxblur=20.0 / qblur=0.5 / vbv_maxrate=40000 / vbv_bufsize=30000 / nal_hrd=none / ip_ratio=1.40 / pb_ratio=1.30 / aq=2:1.00
Язык : English

Аудио #1
Идентификатор : 2
Формат : DTS
Формат/Информация : Digital Theater Systems
Идентификатор кодека : A_DTS
Продолжительность : 2 ч. 15 м.
Вид битрейта : Постоянный
Битрейт : 755 Кбит/сек
Канал(ы) : 6 канала(ов)
Расположение каналов : Front: L C R, Side: L R, LFE
Частота : 48,0 КГц
Битовая глубина : 24 бит
Метод сжатия : С потерями
Размер потока : 729 Мбайт (4%)
Заголовок : DUB
Язык : Russian

Аудио #2
Идентификатор : 3
Формат : DTS
Формат/Информация : Digital Theater Systems
Идентификатор кодека : A_DTS
Продолжительность : 2 ч. 15 м.
Вид битрейта : Постоянный
Битрейт : 1510 Кбит/сек
Канал(ы) : 6 канала(ов)
Расположение каналов : Front: L C R, Side: L R, LFE
Частота : 48,0 КГц
Битовая глубина : 24 бит
Метод сжатия : С потерями
Задержка видео : 11 мс.
Размер потока : 1,42 Гбайт (9%)
Заголовок : Original
Язык : English

Аудио #3
Идентификатор : 4
Формат : AC-3
Формат/Информация : Audio Coding 3
Профиль формата : Dolby Digital
Расширение режима : CM (complete main)
Идентификатор кодека : A_AC3
Продолжительность : 2 ч. 15 м.
Вид битрейта : Постоянный
Битрейт : 192 Кбит/сек
Канал(ы) : 2 канала(ов)
Расположение каналов : Front: L R
Частота : 48,0 КГц
Битовая глубина : 16 бит
Метод сжатия : С потерями
Размер потока : 185 Мбайт (1%)
Заголовок : commentary
Язык : English

Текст #1
Идентификатор : 5
Формат : UTF-8
Идентификатор кодека : S_TEXT/UTF8
Идентификатор кодека/Информация : UTF-8 Plain Text
Заголовок : forced
Язык : Russian

Текст #2
Идентификатор : 6
Формат : UTF-8
Идентификатор кодека : S_TEXT/UTF8
Идентификатор кодека/Информация : UTF-8 Plain Text
Заголовок : full
Язык : Russian

Текст #3
Идентификатор : 7
Формат : UTF-8
Идентификатор кодека : S_TEXT/UTF8
Идентификатор кодека/Информация : UTF-8 Plain Text
Заголовок : full
Язык : English

Текст #4
Идентификатор : 8
Формат : UTF-8
Идентификатор кодека : S_TEXT/UTF8
Идентификатор кодека/Информация : UTF-8 Plain Text
Заголовок : SDH
Язык : English

Текст #5
Идентификатор : 9
Формат : UTF-8
Идентификатор кодека : S_TEXT/UTF8
Идентификатор кодека/Информация : UTF-8 Plain Text
Заголовок : COLOR SDH
Язык : English

Меню
00:00:00.000 : en:(未命名)
00:08:43.689 : en:(未命名)
00:14:26.615 : en:(未命名)
00:19:57.487 : en:(未命名)
00:27:53.296 : en:(未命名)
00:34:18.264 : en:(未命名)
00:42:52.403 : en:(未命名)
00:47:57.374 : en:(未命名)
00:53:56.066 : en:(未命名)
01:00:29.167 : en:(未命名)
01:07:36.635 : en:(未命名)
01:14:36.972 : en:(未命名)
01:22:39.204 : en:(未命名)
01:28:37.687 : en:(未命名)
01:36:39.043 : en:(未命名)
01:41:05.684 : en:(未命名)
01:45:07.968 : en:(未命名)
01:52:15.520 : en:(未命名)
02:00:07.283 : en:(未命名)
02:05:06.415 : en:(未命名)


Свернуть
Скриншоты

Изображение
Изображение
Изображение
Изображение
Изображение
Изображение
Свернуть
_________________
Изображение
Изображение
Не в сети
Профиль  
 Добавлено: 2013-01-02 12:16 (спустя 26 дней)
Аватара пользователя
Стаж: 7 лет 11 месяцев
Сообщений: 14
Сейчас заценим
Не в сети
Профиль  
 Добавлено: 2014-01-18 09:26 (спустя 1 год)
Аватара пользователя
Стаж: 7 лет 10 месяцев
Возраст: 26
Сообщений: 38
раздайте плиз...спасибо
Не в сети
Профиль  
 Добавлено: 2014-01-18 12:09 (спустя 2 часа 42 минуты)
Аватара пользователя
Стаж: 7 лет 10 месяцев
Возраст: 26
Сообщений: 38
еще чуть чуть дайте скорости. спасибо
Не в сети
Профиль  
Начать новую темуОтветить на тему  [ Сообщений: 4 ] 
Вы не можете начинать темы
Вы не можете отвечать на сообщения
Вы не можете редактировать свои сообщения
Вы не можете удалять свои сообщения