Правила форума

  • В этом разделе создание новых тем Запрещено.
  • Для создания новых тем пользуйтесь Корневым разделом DVD и HD фильмы.
Начать новую темуОтветить на тему  [ Сообщений: 5 ] 
Торрент файл
Размер: 6.8 GB • Зарегистрирован: 3 года 2 месяца • Статус: T Временный релиз
Скачан: 75 раз • Желающих скачать: 0 • Поблагодарили: 36 раз
 Раздают: 0  |  0 KB/s  ]   Качают: 0  |  0 KB/s  ] 
 Полного источника не было 1 месяц 21 день 
Сообщения
 Добавлено: 2013-09-26 16:43
Книголюб
Аватара пользователя
Стаж: 7 лет 2 месяца
Сообщений: 2823
Спасибок: 48823
Лайков: 73
Европа
Europa Report

«Fear. Sacrifice. Contact.»

Изображение


Год выпуска: 2013
Страна: США (Wayfare Entertainment)
Жанр: фантастика, триллер
Продолжительность: 01:30:21
Перевод: Любительский (одноголосый закадровый)

Режиссёр: Себастьян Кордеро
В ролях: Шарлто Копли, Эмбет Дэвидц, Микаэл Нюквист, Кристиан Камарго, Каролина Выдра, Дэниэл Ву, Исайя Уитлок мл., Анамария Маринка
Описание: Фильм повествует о международной космической экспедиции к четвертому спутнику Юпитера, которую снаряжает некая частная корпорация. Цель полета — высадиться на европейскую твердь, где, как считают некоторые ученые, существует вероятность возникновения жизни
Рейтинг MPAA: Рейтинг PG-13 (Дети до 13 лет допускаются на фильм только с родителями)
Мировая премьера: 15 июня 2013
Изображение 6.4971974

Качество: BDRip 1080p
Формат: MKV
Видео кодек: H264 (AVC)
Аудио кодек: AC3 (Dolby Digital)
Видео: 1920x1080 23.976fps 8 870 Kbps
Аудио #1: RUS:Dolby AC3 48000Hz 6ch 384 Kbps
Аудио #2: ENG:DTS 48000Hz 6ch 1 510 Kbps
MediaInfo
General
Unique ID : 198489938191081709082049063982152589004 (0x9553C585194F91EFB179476543A09ECC)
Complete name : K:\Torrent\Europa.mkv
Format : Matroska
Format version : Version 4 / Version 2
File size : 6.80 GiB
Duration : 1h 30mn
Overall bit rate : 10.8 Mbps
Movie name : CINEMANIA.CC
Encoded date : UTC 2013-09-25 22:09:35
Writing application : mkvmerge v6.4.1 ('Omega Point') built on Sep 16 2013 22:05:10
Writing library : libebml v1.3.0 + libmatroska v1.4.1

Video
ID : 1
Format : AVC
Format/Info : Advanced Video Codec
Format profile : High@L4.1
Format settings, CABAC : Yes
Format settings, ReFrames : 4 frames
Codec ID : V_MPEG4/ISO/AVC
Duration : 1h 30mn
Bit rate : 8 870 Kbps
Width : 1 920 pixels
Height : 1 080 pixels
Display aspect ratio : 16:9
Frame rate : 23.976 fps
Color space : YUV
Chroma subsampling : 4:2:0
Bit depth : 8 bits
Scan type : Progressive
Bits/(Pixel*Frame) : 0.178
Stream size : 5.47 GiB (80%)
Title : CINEMANIA.CC
Writing library : x264 core 133 r2334 a3ac64b
Encoding settings : cabac=1 / ref=4 / deblock=1:0:0 / analyse=0x3:0x133 / me=umh / subme=7 / psy=1 / psy_rd=1.00:0.00 / mixed_ref=1 / me_range=16 / chroma_me=1 / trellis=1 / 8x8dct=1 / cqm=0 / deadzone=21,11 / fast_pskip=0 / chroma_qp_offset=-2 / threads=36 / lookahead_threads=6 / sliced_threads=0 / nr=0 / decimate=1 / interlaced=0 / bluray_compat=0 / constrained_intra=0 / bframes=3 / b_pyramid=2 / b_adapt=1 / b_bias=0 / direct=1 / weightb=1 / open_gop=0 / weightp=2 / keyint=250 / keyint_min=23 / scenecut=40 / intra_refresh=0 / rc_lookahead=40 / rc=2pass / mbtree=1 / bitrate=8870 / ratetol=1.0 / qcomp=0.60 / qpmin=0 / qpmax=69 / qpstep=4 / cplxblur=20.0 / qblur=0.5 / ip_ratio=1.40 / aq=1:1.00
Language : English
Default : Yes
Forced : No

Audio #1
ID : 2
Format : AC-3
Format/Info : Audio Coding 3
Mode extension : CM (complete main)
Codec ID : A_AC3
Duration : 1h 30mn
Bit rate mode : Constant
Bit rate : 384 Kbps
Channel(s) : 6 channels
Channel positions : Front: L C R, Side: L R, LFE
Sampling rate : 48.0 KHz
Bit depth : 16 bits
Compression mode : Lossy
Stream size : 248 MiB (4%)
Title : den904
Language : Russian
Default : Yes
Forced : Yes

Audio #2
ID : 3
Format : DTS
Format/Info : Digital Theater Systems
Codec ID : A_DTS
Duration : 1h 30mn
Bit rate mode : Constant
Bit rate : 1 510 Kbps
Channel(s) : 6 channels
Channel positions : Front: L C R, Side: L R, LFE
Sampling rate : 48.0 KHz
Bit depth : 24 bits
Compression mode : Lossy
Stream size : 976 MiB (14%)
Language : English
Default : No
Forced : No

Text
ID : 4
Format : UTF-8
Codec ID : S_TEXT/UTF8
Codec ID/Info : UTF-8 Plain Text
Language : English
Default : No
Forced : No


Свернуть

Скриншоты
Изображение
Изображение
Изображение
Свернуть
Не в сети
Профиль  
 Добавлено: 2013-09-27 21:03 (спустя 1 день 4 часа)
Стаж: 8 лет 7 месяцев
Сообщений: 16
моя оценка этому фильму 30 по 100 бальной шкале.
Не в сети
Профиль  
 Добавлено: 2013-09-28 12:49 (спустя 15 часов)
Стаж: 7 лет 6 месяцев
Сообщений: 82
Фантастику редко снимают. Имеет смысл скачать.
Не в сети
Профиль  
 Добавлено: 2013-10-01 00:48 (спустя 2 дня 11 часов)
Инквизитор
Аватара пользователя
Стаж: 8 лет 9 месяцев
Возраст: 25
Сообщений: 2537
Спасибок: 3227
Лайков: 33
а это не в HD должно быть ?
Видео: 1920x1080
_________________
Изображение Изображение
Не в сети
Профиль  
 Добавлено: 2013-11-09 21:58 (спустя 1 месяц 8 дней)
Аватара пользователя
Стаж: 8 лет 11 месяцев
Сообщений: 74
Спасибок: 8
Фильм понравился!
Не в сети
Профиль  
Начать новую темуОтветить на тему  [ Сообщений: 5 ] 
Вы не можете начинать темы
Вы не можете отвечать на сообщения
Вы не можете редактировать свои сообщения
Вы не можете удалять свои сообщения