Правила форума

  • В этом разделе создание новых тем Запрещено.
  • Для создания новых тем пользуйтесь Корневым разделом DVD и HD фильмы.
Начать новую темуОтветить на тему  [ Сообщений: 3 ] 
Торрент файл
Размер: 5.06 GB • Зарегистрирован: 5 лет 1 месяц • Статус: Проверено
Скачан: 144 раза • Желающих скачать: 0 • Поблагодарили: 25 раз
 Раздают: 0  |  0 KB/s  ]   Качают: 0  |  0 KB/s  ] 
 Полного источника не было 1 день 12 часов 
Сообщения
 Добавлено: 2011-10-20 09:49
Top-seeder
Аватара пользователя
Стаж: 9 лет
Сообщений: 1399
Спасибок: 28651
Лайков: 8
Евротур / Галопом по Европе / Гадкие американцы [Версия без цензуры] / Eurotrip [Unrated]

Изображение

Год выпуска: 2004
Страна: США
Жанр: Молодёжная комедия
Продолжительность: 1:31:00
Перевод: Профессиональный (многоголосый, закадровый)
Язык субтитров: русские (full) присутствует ненормативная лексика, английские
Режиссер: Джефф Шэффер / Jeff Schaffer
В ролях:
Скотт Мехлович /Scott Mechlowicz/, Джейкоб Питтс /Jacob Pitts/, Мишель Трахтенберг /Michelle Trachtenberg/, Трэвис Уэстер /Travis Wester/, Мэтт Дэймон /Matt Damon/, Джоанна Ламли /Joanna Lumley/, Раде Сербеджиа /Rade Serbedzija/

Описание: Скотти — предсказуемый парень, он закончил школу и готовится поступить в колледж. По электронной почте он переписывается с приятелем Мике из Германии. Всё идёт своим чередом. Однако в один момент его девушка его бросает, а Мике предлагает Скотти встретиться. Скотти, полагая, что Мике — парень, обзывает его грязным извращенцем и рвёт в отчаянии все связи. Младший брат Скотти объясняет, что Мике — это женское немецкое имя и то, что возможно он поссорился с очаровательной фройляйн. Скотти решает ехать в Европу, чтобы объясниться с Мике, однако путь его лежит не прямо в Берлин. Друг Скотти, нанявшись курьером, предлагает слетать сначала в Лондон, а потом автостопом добраться до Берлина.

Дополнительно:
Озорная американская комедия Джеффа Шеффера, сценариста суперхита "Кот", смело высмеивающая забавные обычаи и нелепые стереотипы по обе стороны океана, состоит из бесконечной вереницы уморительных гэгов и изобретательных приколов подчас на грани фола. В этом удачном режиссерском дебюте в стиле молодежных блокбастеров "Американский пирог" и "Дорожное приключение", бесподобно сыграли: Скотт Мекловиц ("Злая река"), Джейкоб Питтс ("К-19", сериалы "Секс в большом городе", "Закон и порядок"), Мишель Трактенберг ("Шпионка Гарриет", сериал "Баффи - истребительница вампиров"), а в эпизодах заняты суперзвезды: лауреат премии "Оскар" Мэтт Дэймон ("Умница Уилл Хантинг", "11 друзей Оушена", "Превосходство Борна"), Винни Джонс ("Большой куш", "Угнать за 60 секунд", "Карты, деньги, два ствола"), Радэ Сербеджиа ("Большой куш", "Тихий американец", "Святой"), Джеффри Тэмбор ("Дочь моего босса", "Хеллбой").

Знаете ли вы, что
Съемки картины начались 5-го мая 2003 года в Праге. Съемки длились 10 недель, закончившись в середине июля того же года.
Рабочим названием картины было «Ugly Americans», но из-за иракских событий название сочли слишком вызывающим. Затем было рассмотрено несколько других названий, таких как «A Fistful of Euros», «Europe on $07 a Day», «Going Abroad», «Road Trip: Let`s Go Europe!», «Scott Does Europe» и «What a Frau Wants». Но остановились на коротеньком «Eurotrip».
Картина является режиссерским дебютом в большом кино Джеффа Шеффера.
Часть фильма, обозначенная как Братислава, снималась в городе Миловице, Чехия. В данном городе располагался штаб советской Центральной Группы Войск в 1968—1991.
Когда Скотти читает письмо от Микки, то смотрит в словаре слово «zussamen». Но если присмотреться в текст, то этого слова нет. А когда камера снимает письмо крупным планом, это слово появляется.]
Свернуть

Качество: HDTVRip(EbP)
Формат: MKV
Аудио кодек: AC3
Видео: x264, 1280x716, 5658 Kbps, 23.976 fps
Аудиопоток №1: AC3 5.1, 48 kHz, 384 kbps |MVO Мега Видео|
Аудиопоток №2: AC3 5.1, 48 kHz, 448 kbps |DVO DVDXpert|
Аудиопоток №3:AC3 5.1, 48 kHz, 384 kbps |Одноголосый закадровый перевод, @PD|
Аудиопоток №4:AC3 5.1, 48 kHz, 448 kbps |Одноголосый закадровый перевод, Строев|
Аудиопоток №5: AC3 5.1, 48 kHz, 448 kbps |Оригинал|

x264
x264 [info]: frame I:1342 Avg QP:17.93 size:103688
x264 [info]: frame P:27716 Avg QP:19.15 size: 59894
x264 [info]: frame B:102949 Avg QP:21.47 size: 21177
x264 [info]: consecutive B-frames: 2.0% 2.4% 6.0% 19.6% 13.0% 52.7% 2.4% 0.7% 1.2%
Свернуть

MI
Общее
Уникальный идентификатор : 243988301269019757194398969003625713840 (0xB78E70033D186C1EA821C34A0D6890B0)
Полное имя : D:\Закачки\Eurotrip.UNRATED.mkv
Формат : Matroska
Размер файла : 5,06 Гбайт
Продолжительность : 1 ч. 31 м.
Общий поток : 7893 Кбит/сек
Дата кодирования : UTC 2011-10-17 19:14:33
Программа кодирования : mkvmerge v4.4.0 ('Die Wiederkehr') сборка от Oct 31 2010 21:52:48
Библиотека кодирования : libebml v1.0.0 + libmatroska v1.0.0

Видео
Идентификатор : 1
Формат : AVC
Формат/Информация : Advanced Video Codec
Профиль формата : High@L4.1
Параметр CABAC формата : Да
Параметр ReFrames формата : 9 кадров
Идентификатор кодека : V_MPEG4/ISO/AVC
Продолжительность : 1 ч. 31 м.
Битрейт : 5624 Кбит/сек
Ширина : 1280 пикс.
Высота : 716 пикс.
Соотношение сторон : 16:9
Частота кадров : 23,976 кадр/сек
Цветовое пространство : YUV
Подвыборка цветности : 4:2:0
Битовая глубина : 8 бит
Тип развёртки : Прогрессивная
Бит/(Пиксели*Кадры) : 0.256
Размер потока : 3,61 Гбайт (71%)
Библиотека кодирования : x264 core 118 r2085 8a62835
Настройки программы : cabac=1 / ref=9 / deblock=1:-2:-2 / analyse=0x3:0x133 / me=umh / subme=10 / psy=1 / psy_rd=1.00:0.05 / mixed_ref=1 / me_range=32 / chroma_me=1 / trellis=2 / 8x8dct=1 / cqm=0 / deadzone=21,11 / fast_pskip=0 / chroma_qp_offset=-3 / threads=3 / sliced_threads=0 / nr=0 / decimate=0 / interlaced=0 / bluray_compat=0 / constrained_intra=0 / bframes=8 / b_pyramid=2 / b_adapt=2 / b_bias=0 / direct=3 / weightb=1 / open_gop=0 / weightp=2 / keyint=250 / keyint_min=23 / scenecut=40 / intra_refresh=0 / rc=crf / mbtree=0 / crf=17.8 / qcomp=0.60 / qpmin=0 / qpmax=69 / qpstep=4 / ip_ratio=1.40 / pb_ratio=1.30 / aq=1:0.80
Язык : English

Аудио #1
Идентификатор : 2
Формат : AC-3
Формат/Информация : Audio Coding 3
Расширение режима : CM (complete main)
Идентификатор кодека : A_AC3
Продолжительность : 1 ч. 31 м.
Вид битрейта : Постоянный
Битрейт : 384 Кбит/сек
Каналы : 6 каналов
Расположение каналов : Front: L C R, Side: L R, LFE
Частота : 48,0 КГц
Битовая глубина : 16 бит
Метод сжатия : С потерями
Размер потока : 252 Мбайт (5%)
Заголовок : MVO
Язык : Russian

Аудио #2
Идентификатор : 3
Формат : AC-3
Формат/Информация : Audio Coding 3
Расширение режима : CM (complete main)
Идентификатор кодека : A_AC3
Продолжительность : 1 ч. 31 м.
Вид битрейта : Постоянный
Битрейт : 448 Кбит/сек
Каналы : 6 каналов
Расположение каналов : Front: L C R, Side: L R, LFE
Частота : 48,0 КГц
Битовая глубина : 16 бит
Метод сжатия : С потерями
Размер потока : 294 Мбайт (6%)
Заголовок : MVO2
Язык : Russian

Аудио #3
Идентификатор : 4
Формат : AC-3
Формат/Информация : Audio Coding 3
Расширение режима : CM (complete main)
Идентификатор кодека : A_AC3
Продолжительность : 1 ч. 31 м.
Вид битрейта : Постоянный
Битрейт : 384 Кбит/сек
Каналы : 6 каналов
Расположение каналов : Front: L C R, Side: L R, LFE
Частота : 48,0 КГц
Битовая глубина : 16 бит
Метод сжатия : С потерями
Размер потока : 252 Мбайт (5%)
Заголовок : @PD
Язык : Russian

Аудио #4
Идентификатор : 5
Формат : AC-3
Формат/Информация : Audio Coding 3
Расширение режима : CM (complete main)
Идентификатор кодека : A_AC3
Продолжительность : 1 ч. 31 м.
Вид битрейта : Постоянный
Битрейт : 448 Кбит/сек
Каналы : 6 каналов
Расположение каналов : Front: L C R, Side: L R, LFE
Частота : 48,0 КГц
Битовая глубина : 16 бит
Метод сжатия : С потерями
Размер потока : 294 Мбайт (6%)
Заголовок : Stroev
Язык : Russian

Аудио #5
Идентификатор : 6
Формат : AC-3
Формат/Информация : Audio Coding 3
Расширение режима : CM (complete main)
Идентификатор кодека : A_AC3
Продолжительность : 1 ч. 31 м.
Вид битрейта : Постоянный
Битрейт : 448 Кбит/сек
Каналы : 6 каналов
Расположение каналов : Front: L C R, Side: L R, LFE
Частота : 48,0 КГц
Битовая глубина : 16 бит
Метод сжатия : С потерями
Размер потока : 294 Мбайт (6%)
Язык : English

Текст #1
Идентификатор : 7
Формат : UTF-8
Идентификатор кодека : S_TEXT/UTF8
Идентификатор кодека/Информация : UTF-8 Plain Text
Язык : Russian

Текст #2
Идентификатор : 8
Формат : UTF-8
Идентификатор кодека : S_TEXT/UTF8
Идентификатор кодека/Информация : UTF-8 Plain Text
Язык : English

Свернуть

Скриншоты
ИзображениеИзображениеИзображениеИзображениеИзображение
Свернуть

Инфа от релизера: Очень хорошая молодежная комедия,кто не смотрел обязательно скачайте и посмотрите,я думаю не зря потратите свое личное время,приятного просмотра.
Не в сети
Профиль  
 Добавлено: 2012-05-06 09:46 (спустя 6 месяцев)
Аватара пользователя
Стаж: 8 лет 10 месяцев
Сообщений: 26
скорость!!!!!1(
Не в сети
Профиль  
 Добавлено: 2012-05-06 12:17 (спустя 2 часа 31 минута)
Стаж: 8 лет 10 месяцев
Сообщений: 23
Спасибок: 109
скриншоты просто ОЧЕНЬ информативные!
Не в сети
Профиль  
Начать новую темуОтветить на тему  [ Сообщений: 3 ] 
Вы не можете начинать темы
Вы не можете отвечать на сообщения
Вы не можете редактировать свои сообщения
Вы не можете удалять свои сообщения