Правила форума

  • В этом разделе создание новых тем Запрещено.
  • Для создания новых тем пользуйтесь Корневым разделом DVD и HD фильмы.
Начать новую темуОтветить на тему  [ Сообщений: 2 ] 
Торрент файл
Размер: 4.44 GB • Зарегистрирован: 5 лет 2 месяца • Статус: Проверено
Скачан: 39 раз • Желающих скачать: 0 • Поблагодарили: 13 раз
 Раздают: 0  |  0 KB/s  ]   Качают: 0  |  0 KB/s  ] 
 Полного источника не было 1 день 21 час 
Сообщения
 Добавлено: 2011-09-05 14:38
Top-seeder
Аватара пользователя
Стаж: 6 лет 10 месяцев
Возраст: 28
Сообщений: 280
Спасибок: 606
Эйс Вентура: Розыск домашних животных / Ace Ventura: Pet Detective
"He's the best there is!"

Изображение



Год выпуска: 1993

Страна: США

Жанр: Комедия, детектив

Продолжительность: 1:25:53

Перевод: Профессиональный (многоголосый, закадровый)ТНТ + Профессиональный (многоголосый, закадровый)

Режиссер: Том Шэдьяк

В ролях: Джим Керри, Кортни Кокс, Шон Янг, Тоун Лок, Дэн Марино, Ноубл Уиллингэм, Трой Эванс, Рейнор Шайни, Удо Кир, Фрэнк Адонис

Описание: Он - лучший в своем деле, единственный и неповторимый! Он - Эйс Вентура, детектив по розыску домашних любимцев. Когда таинственные злоумышленники похищают дельфина по кличке «Снежинка», талисман местной футбольной команды «Дельфины», Эйс тут же приступает к работе, проявляя чудеса изобретательности.
История принимает странный оборот, когда похищают еще и ведущего игрока «Дельфинов». Теперь Эйсу приходится разыскивать сразу двух млекопитающих. Он сталкивается «нос к носу» с акулой-людоедом, спасает любимую команду и очаровывает женщин. Находится ли он «под прикрытием», под огнем или под водой, он обязательно найдет то, что ищет!


Качество:
HDTVRip
Формат: MKV
Видео: MPEG4 Video (H264) 1280x720 23.98fps
Аудио:
1# - ТНТ
Dolby AC3 48000Hz stereo
2# - Профессиональный (многоголосый, закадровый)
Dolby AC3 48000Hz stereo

Rip от LITTLE_MANIAK
"Media Info"
Общее
Уникальный идентификатор : 205618923665149112499894571466362640275 (0x9AB0C3A40C8847FD938EA4D119AAD793)
Полное имя : H:\FILMS\Ace.Ventura.Pet.Detective.HDTVRip by LITTLE_MANIAK.720p.mkv
Формат : Matroska
Размер файла : 4,44 Гбайт
Продолжительность : 1 ч. 25 м.
Общий поток : 7405 Кбит/сек
Дата кодирования : UTC 2011-07-01 07:29:03
Программа кодирования : mkvmerge v2.4.2 ('Oh My God') built on Jan 18 2009 17:30:28
Библиотека кодирования : libebml v0.7.7 + libmatroska v0.8.1

Видео
Идентификатор : 1
Формат : AVC
Формат/Информация : Advanced Video Codec
Профиль формата : High@L4.1
Параметр CABAC формата : Да
Параметр ReFrames формата : 3 кадра
Идентификатор кодека : V_MPEG4/ISO/AVC
Продолжительность : 1 ч. 25 м.
Битрейт : 7018 Кбит/сек
Ширина : 1280 пикс.
Высота : 720 пикс.
Соотношение сторон : 16:9
Частота кадров : 23,976 кадр/сек
Цветовое пространство : YUV
Подвыборка цветности : 4:2:0
Битовая глубина : 8 бит
Тип развёртки : Прогрессивная
Бит/(Пиксели*Кадры) : 0.318
Размер потока : 4,12 Гбайт (93%)
Заголовок : Rip by LITTLE_MANIAK
Библиотека кодирования : x264 core 65 r999kMod cc51047
Настройки программы : cabac=1 / ref=3 / deblock=1:0:0 / analyse=0x3:0x133 / me=umh / subme=6 / psy_rd=1.0:0.0 / mixed_ref=1 / me_range=16 / chroma_me=1 / trellis=1 / 8x8dct=1 / cqm=0 / deadzone=21,11 / chroma_qp_offset=-2 / threads=2 / thread_queue=2 / nr=0 / decimate=1 / mbaff=0 / bframes=3 / b_pyramid=1 / b_adapt=1 / b_bias=0 / direct=3 / wpredb=1 / keyint=250 / keyint_min=25 / scenecut=40(pre) / rc=2pass / bitrate=7018 / ratetol=1.0 / qcomp=0.60 / qpmin=10 / qpmax=51 / qpstep=4 / cplxblur=20.0 / qblur=0.5 / ip_ratio=1.40 / pb_ratio=1.30 / aq=1:1.00

Аудио #1
Идентификатор : 2
Формат : AC-3
Формат/Информация : Audio Coding 3
Расширение режима : CM (complete main)
Идентификатор кодека : A_AC3
Продолжительность : 1 ч. 25 м.
Вид битрейта : Постоянный
Битрейт : 192 Кбит/сек
Каналы : 2 канала
Расположение каналов : Front: L R
Частота : 48,0 КГц
Битовая глубина : 16 бит
Метод сжатия : С потерями
Размер потока : 118 Мбайт (3%)
Заголовок : Многоголосый закадровый(ТНТ)
Язык : Russian

Аудио #2
Идентификатор : 3
Формат : AC-3
Формат/Информация : Audio Coding 3
Расширение режима : CM (complete main)
Идентификатор кодека : A_AC3
Продолжительность : 1 ч. 25 м.
Вид битрейта : Постоянный
Битрейт : 192 Кбит/сек
Каналы : 2 канала
Расположение каналов : Front: L R
Частота : 48,0 КГц
Битовая глубина : 16 бит
Метод сжатия : С потерями
Размер потока : 118 Мбайт (3%)
Заголовок : Многоголосый
Язык : Russian

Свернуть
"Доп.Инфо."
Группа играющая в клубе - «Cannibal Corpse», реально существующая группа, фанатом которой является Джим Керри.
Машина Эйса — Chevrolet Monte Carlo 1972 года выпуска.
На главную женскую роль пробовалась жена Джима Кэрри, актриса Лорен Холли.
Героиня Кортни Кокс, Мелисса Робинсон, была названа в честь дочери главного сценариста Джека Бернштейна. Персонаж Джона Каподиче, сержант Агуадо, получил фамилию одного из продюсеров фильма Кена Агуадо.
Во время исследования резервуара, в котором когда-то находился Снежок, Эйс пародирует капитана Кирка, персонажа телесериала «Звёздный путь».
Вечеринка Рональда Кэмпа снималась на знаменитой вилле Вискайа.
Когда Эйс подвергается нападкам Эйнхорн, он произносит фразу «Признаюсь, это я был вторым стрелком с травянистого холма (англ. I admit I was the second gunman on the grassy knoll)». Это отсылка к теории заговора по поводу убийства Джона Кеннеди, которая предполагает существование второго убийцы, стрелявшего в американского президента.
Название лечебницы для душевнобольных «Шейди Экрес (англ. Shady Acres)» было произведено из фамилии режиссёра Тома Шедьяка.
В сцене, когда лейтенант Эйнхорн запускает футбольный мяч через дыру в крыше, её роль исполнял кикер «Майами Долфинс» Пит Стоянович, переодевшийся в юбку и туфли на высоких каблуках.
Свернуть
"Скриншоты"
Изображение
Изображение
Изображение
Изображение
Изображение
Свернуть
_________________

Изображение
Приму в дар,или куплю радиотехнику(усилители,колонки)
Изображение
Изображение


Последний раз редактировалось LITTLE MANIAK 2011-09-06 22:14, всего редактировалось 3 раз(а).
Не в сети
Профиль  
 Добавлено: 2011-09-05 14:40 (спустя 1 минута)
Top-seeder
Аватара пользователя
Стаж: 6 лет 10 месяцев
Возраст: 28
Сообщений: 280
Спасибок: 606
Отличается от viewtopic.php?f=1750&t=99963&hilit=%D0%AD%D0%B9%D1%81+%D0%92%D0%B5%D0%BD%D1%82%D1%83%D1%80%D0%B0
другим видео рядом.
Рип делал сам.
_________________

Изображение
Приму в дар,или куплю радиотехнику(усилители,колонки)
Изображение
Изображение
Не в сети
Профиль  
Начать новую темуОтветить на тему  [ Сообщений: 2 ] 
Вы не можете начинать темы
Вы не можете отвечать на сообщения
Вы не можете редактировать свои сообщения
Вы не можете удалять свои сообщения