Правила форума

  • В этом разделе создание новых тем Запрещено.
  • Для создания новых тем пользуйтесь Корневым разделом DVD и HD фильмы.
Начать новую темуОтветить на тему  [ Сообщений: 2 ] 
Торрент файл
Размер: 6.55 GB • Зарегистрирован: 1 год 3 месяца • Статус: Проверено
Скачан: 50 раз • Желающих скачать: 0 • Поблагодарили: 8 раз
 Раздают: 0  |  0 KB/s  ]   Качают: 0  |  0 KB/s  ] 
 Полного источника не было 7 дней 
Сообщения
 Добавлено: 2015-09-03 10:26
RG-ELEKTRO
Аватара пользователя
Стаж: 2 года 3 месяца
Сообщений: 7928
Спасибок: 53801
Лайков: 3304
Факап, или Хуже не бывает / Nicht mein Tag


Изображение


Год выпуска: 2014
Страна: Германия (Donar Film)
Жанр: боевик, комедия, криминал, приключения
Продолжительность: 01:50:17
Перевод: Профессиональный (дубляж) (Лицензия) + Оригинальная звуковая дорожка
Субтитры: Русские, Немецкие

Режиссёр: Петер Торварт
В ролях: Мориц Бляйбтрой, Аксель Штайн, Жасмин Герат, Анна Мария Мюэ, Неля Кипер, Бен Рюдингер, Касэм Ходжа, Беким Гури, Тобиас Нид, Максвелл Рихтер, Юрген Риссманн, Александр Колл, Мартина Эйтнер...
Описание: Тилль Райнер – банковский клерк, чья жизнь довольно обычна, если не сказать скучна. Брак, работа, жизнь в небольшом городке. Огонь страсти в отношениях с женой Мириам давно утих, поглощенный повседневной рутиной. Разве это именно то, о чем он так мечтал? Герой фильма сокрушается и не знает, как изменить свою жизнь. Как вдруг, она меняется сама.В один прекрасный день Тилль становится заложником. Вооруженный грабитель банка Наппо, далеко не профессионал своего дела, берет его на прицел. Теперь эти двое героев комедийного криминального боевика «Не мой день» становятся неразрывно связаны и вынуждены провести вместе следующие 48 часов, на протяжении которых сюжет фильма ожидает немало неожиданных поворотов.

Изображение Изображение Изображение

Качество: BDRip 720p
Формат: MKV
Видео кодек: MPEG-4 AVC
Аудио кодек: DTS / AC3
Видео: MPEG-4 AVC, 6190 Кбит/с, 1280x544, 25,000 fps
Аудио #1: DTS, 1510 kb/s (6 ch), 48 kHz [Профессиональный (дубляж)]
Аудио #2: Ger, AC3, 640 kb/s (6 ch), 48 kHz [Оригинальная звуковая дорожка]
Субтитры: Русские, Немецкие

"MI"
x264 [info]: frame I:1558 Avg QP:15.39 size:124198
x264 [info]: frame P:38380 Avg QP:16.82 size: 53075
x264 [info]: frame B:125487 Avg QP:18.19 size: 24123

Format : Matroska
Format version : Version 4 / Version 2
File size : 6.55 GiB
Duration : 1h 50mn
Overall bit rate : 8 508 Kbps
Movie name : Факап, или Хуже не бывает. (Tonik)
Encoded date : UTC 2015-09-02 12:34:53
Writing application : mkvmerge v7.1.0 ('Good Love') 64bit built on Jul 27 2014 13:06:55
Writing library : libebml v1.3.0 + libmatroska v1.4.1
_STATISTICS_WRITING_APP : mkvmerge v7.1.0 ('Good Love') 64bit built on Jul 27 2014 13:06:55
_STATISTICS_WRITING_DATE_UTC : 2015-09-02 12:34:53
_STATISTICS_TAGS : BPS DURATION NUMBER_OF_FRAMES NUMBER_OF_BYTES
DURATION : 01:50:17.216000000
NUMBER_OF_FRAMES : 620364
NUMBER_OF_BYTES : 1248172368

Video
ID : 1
Format : AVC
Format/Info : Advanced Video Codec
Format profile : High@L4.1
Format settings, CABAC : Yes
Format settings, ReFrames : 10 frames
Codec ID : V_MPEG4/ISO/AVC
Duration : 1h 50mn
Bit rate : 6 190 Kbps
Width : 1 280 pixels
Height : 544 pixels
Display aspect ratio : 2.35:1
Frame rate mode : Constant
Frame rate : 25.000 fps
Color space : YUV
Chroma subsampling : 4:2:0
Bit depth : 8 bits
Scan type : Progressive
Bits/(Pixel*Frame) : 0.356
Stream size : 4.77 GiB (73%)
Writing library : x264 core 144 r2525kMod 40bb568
Encoding settings : cabac=1 / ref=10 / deblock=1:-3:-3 / analyse=0x3:0x133 / me=umh / subme=10 / psy=1 / fade_compensate=0.00 / psy_rd=1.05:0.00 / mixed_ref=1 / me_range=24 / chroma_me=1 / trellis=2 / 8x8dct=1 / cqm=0 / deadzone=21,11 / fast_pskip=0 / chroma_qp_offset=-2 / threads=12 / lookahead_threads=2 / sliced_threads=0 / nr=0 / decimate=0 / interlaced=0 / bluray_compat=0 / constrained_intra=0 / fgo=0 / bframes=8 / b_pyramid=2 / b_adapt=2 / b_bias=0 / direct=3 / weightb=1 / open_gop=0 / weightp=2 / keyint=240 / keyint_min=23 / scenecut=40 / intra_refresh=0 / rc_lookahead=60 / rc=crf / mbtree=0 / crf=16.0000 / qcomp=0.60 / qpmin=0 / qpmax=69 / qpstep=4 / vbv_maxrate=62500 / vbv_bufsize=78125 / crf_max=0.0 / nal_hrd=none / filler=0 / ip_ratio=1.30 / pb_ratio=1.20 / aq=3:0.80
Language : German
Default : Yes
Forced : No
_STATISTICS_WRITING_APP : mkvmerge v7.1.0 ('Good Love') 64bit built on Jul 27 2014 13:06:55
_STATISTICS_WRITING_DATE_UTC : 2015-09-02 12:34:53
_STATISTICS_TAGS : BPS DURATION NUMBER_OF_FRAMES NUMBER_OF_BYTES
DURATION : 01:50:17.000000000
NUMBER_OF_FRAMES : 165425
NUMBER_OF_BYTES : 5257572235

Audio #1
ID : 2
Format : DTS
Format/Info : Digital Theater Systems
Mode : 16
Format settings, Endianness : Big
Codec ID : A_DTS
Duration : 1h 50mn
Bit rate mode : Constant
Bit rate : 1 509 Kbps
Channel(s) : 6 channels
Channel positions : Front: L C R, Side: L R, LFE
Sampling rate : 48.0 KHz
Bit depth : 24 bits
Compression mode : Lossy
Stream size : 1.16 GiB (18%)
Language : Russian
Default : Yes
Forced : No

Audio #2
ID : 3
Format : AC-3
Format/Info : Audio Coding 3
Mode extension : CM (complete main)
Format settings, Endianness : Big
Codec ID : A_AC3
Duration : 1h 50mn
Bit rate mode : Constant
Bit rate : 640 Kbps
Channel(s) : 6 channels
Channel positions : Front: L C R, Side: L R, LFE
Sampling rate : 48.0 KHz
Bit depth : 16 bits
Compression mode : Lossy
Stream size : 505 MiB (8%)
Language : German
Default : No
Forced : No

Text #1
ID : 4
Format : UTF-8
Codec ID : S_TEXT/UTF8
Codec ID/Info : UTF-8 Plain Text
Language : Russian
Default : No
Forced : No

Text #2
ID : 5
Format : UTF-8
Codec ID : S_TEXT/UTF8
Codec ID/Info : UTF-8 Plain Text
Language : German
Default : No
Forced : No

Menu
00:00:00.000 : de:00:00:00.000
00:07:21.360 : de:00:07:21.360
00:15:47.040 : de:00:15:47.040
00:22:52.600 : de:00:22:52.600
00:30:56.040 : de:00:30:56.040
00:37:25.960 : de:00:37:25.960
00:45:21.840 : de:00:45:21.840
00:52:59.000 : de:00:52:59.000
01:01:33.640 : de:01:01:33.640
01:09:28.440 : de:01:09:28.440
01:15:51.920 : de:01:15:51.920
01:23:02.120 : de:01:23:02.120
01:31:39.560 : de:01:31:39.560
01:37:32.320 : de:01:37:32.320
01:44:16.800 : de:01:44:16.800
01:46:06.680 : de:01:46:06.680
Свернуть

Скриншоты
Изображение
Изображение
Изображение
Свернуть
Изображение


Изображение Изображение
Не в сети
Профиль  
 Добавлено: 2015-09-03 18:25 (спустя 7 часов)
Аватара пользователя
Стаж: 8 лет 8 месяцев
Сообщений: 1704
Спасибок: 104
Лайков: 152
веселый фильмец))
Не в сети
Профиль  
Начать новую темуОтветить на тему  [ Сообщений: 2 ] 
Вы не можете начинать темы
Вы не можете отвечать на сообщения
Вы не можете редактировать свои сообщения
Вы не можете удалять свои сообщения