Правила форума

  • В этом разделе создание новых тем Запрещено.
  • Для создания новых тем пользуйтесь Корневым разделом DVD и HD фильмы.
Начать новую темуОтветить на тему  [ 1 сообщение ] 
Торрент файл
Размер: 10.8 GB • Зарегистрирован: 5 лет 10 месяцев • Статус: Проверено
Скачан: 31 раз • Желающих скачать: 0 • Поблагодарили: 8 раз
 Раздают: 0  |  0 KB/s  ]   Качают: 0  |  0 KB/s  ] 
 Полного источника не было 2 года 
Сообщения
 Добавлено: 2011-01-26 18:58
Аватара пользователя
Стаж: 8 лет
Возраст: 30
Сообщений: 846
Спасибок: 982
Лайков: 1
Факультет / The Faculty


Изображение


Год выпуска: 1998
Страна: США, Dimension Films
Жанр: Ужасы, фантастика, триллер
Продолжительность: 01:44:11
Перевод: Профессиональный (двухголосый) / Профессиональный одноголосый (диктор CDV) / Авторский (А.Гаврилов) / Авторский (Ю.Живов)


Режиссер: Роберт Родригес / Robert Rodriguez

В ролях: Шон Хэтоси, Элайджа Вуд, Биби Ньюирт, Крис МакДоналд, Сальма Хайек, Лора Харрис,
Роберт Патрик, Пайпер Лори, Фамке Янссен, Саммер Феникс,Джон Абрахамс, Джордана Брюстер,
Клеа ДюВолл, Джош Хартнетт, Ашер Рэймонд, Джон Стюарт, Дэниэл Фон Барген

Описание:
В обычной школе штата Огайо появляется неизвестный науке паразит. Проникая в тело человека,
он превращает сначала учителей, а потом и учеников в своих носителей. Об этом узнает отличник Кэйси, самый
обижаемый ученик, объект насмешек и издевательств. Вокруг него собирается небольшая группа, решивших бороться
с инопланетным вторжением, о котором прочитано много книжек и просмотрено столько фильмов. Они устанавливают,
что убить пришельцев можно только кокаином, вот только непонятно — в кого уже успела вселиться инопланетная тварь...


Качество: BDRip
Формат: MKV
Видео кодек: H.264
Аудио кодек: DTS
Видео: MPEG-4 AVC, 9410 Kбит/с, 1920x1080, 23.976 кадр/с
Аудио:
- русский (DTS, 6 ch, 1536 Кбит/с) - двухголосый и Живов,
- украинский (AC3, 2 ch, 256 Кбит/с) - двухголосый,
- русский (AC3, 2 ch, 192 Кбит/с) - диктор CDV,
- русский (AC3, 6 ch, 448 Кбит/с) - Гаврилов,
- английский (DTS, 6 ch, 1536 Кбит/с)

MediaInfo
Format : Matroska
File size : 10.8 GiB
Duration : 1h 44mn
Overall bit rate : 14.8 Mbps
Movie name : =kinozal.tv-HD=
Encoded date : UTC 2009-12-17 10:56:22
Writing application : mkvmerge v2.9.8 ('C'est le bon') built on Aug 13 2009 12:49:06
Writing library : libebml v0.7.7 + libmatroska v0.8.1

Video
ID : 1
Format : AVC
Format/Info : Advanced Video Codec
Format profile : High@L4.1
Format settings, CABAC : Yes
Format settings, ReFrames : 4 frames
Muxing mode : Container profile=Unknown@4.1
Codec ID : V_MPEG4/ISO/AVC
Duration : 1h 44mn
Bit rate : 9 114 Kbps
Nominal bit rate : 9 410 Kbps
Width : 1 920 pixels
Height : 1 080 pixels
Display aspect ratio : 16:9
Frame rate : 23.976 fps
Resolution : 24 bits
Colorimetry : 4:2:0
Scan type : Progressive
Bits/(Pixel*Frame) : 0.183
Stream size : 6.63 GiB (61%)
Writing library : x264 core 79 r1332 70f8869
Encoding settings : cabac=1 / ref=4 / deblock=1:-1:-1 / analyse=0x3:0x113 / me=umh / subme=7 / psy=1 / psy_rd=1.0:0.0 / mixed_ref=1 / me_range=16 / chroma_me=1 / trellis=2 / 8x8dct=1 / cqm=0 / deadzone=21,11 / chroma_qp_offset=-2 / threads=6 / nr=0 / decimate=1 / mbaff=0 / constrained_intra=0 / bframes=3 / b_pyramid=0 / b_adapt=2 / b_bias=0 / direct=3 / wpredb=1 / wpredp=2 / keyint=250 / keyint_min=25 / scenecut=40 / rc_lookahead=40 / rc=2pass / mbtree=1 / bitrate=9410 / ratetol=1.0 / qcomp=0.60 / qpmin=10 / qpmax=51 / qpstep=4 / cplxblur=20.0 / qblur=0.5 / vbv_maxrate=50000 / vbv_bufsize=50000 / ip_ratio=1.40 / aq=1:1.00
Language : English

Audio #1
ID : 2
Format : DTS
Format/Info : Digital Theater Systems
Codec ID : A_DTS
Duration : 1h 44mn
Bit rate mode : Constant
Bit rate : 1 510 Kbps
Channel(s) : 6 channels
Channel positions : Front: L C R, Surround: L R, LFE
Sampling rate : 48.0 KHz
Resolution : 24 bits
Stream size : 1.10 GiB (10%)
Language : English

Audio #2
ID : 3
Format : DTS
Format/Info : Digital Theater Systems
Codec ID : A_DTS
Duration : 1h 44mn
Bit rate mode : Constant
Bit rate : 1 510 Kbps
Channel(s) : 6 channels
Channel positions : Front: L C R, Surround: L R, LFE
Sampling rate : 48.0 KHz
Resolution : 24 bits
Stream size : 1.10 GiB (10%)
Language : Russian

Audio #3
ID : 4
Format : AC-3
Format/Info : Audio Coding 3
Codec ID : A_AC3
Duration : 1h 44mn
Bit rate mode : Constant
Bit rate : 256 Kbps
Channel(s) : 2 channels
Channel positions : L R
Sampling rate : 48.0 KHz
Stream size : 191 MiB (2%)
Language : Ukrainian

Audio #4
ID : 5
Format : AC-3
Format/Info : Audio Coding 3
Codec ID : A_AC3
Duration : 1h 44mn
Bit rate mode : Constant
Bit rate : 192 Kbps
Channel(s) : 2 channels
Channel positions : L R
Sampling rate : 48.0 KHz
Stream size : 143 MiB (1%)
Title : AC3 2.0 192 Kbps [Одноголосый, Диктор CDV]
Language : Russian

Audio #5
ID : 6
Format : AC-3
Format/Info : Audio Coding 3
Codec ID : A_AC3
Duration : 1h 44mn
Bit rate mode : Constant
Bit rate : 448 Kbps
Channel(s) : 6 channels
Channel positions : Front: L C R, Surround: L R, LFE
Sampling rate : 48.0 KHz
Stream size : 334 MiB (3%)
Title : AC3 5.1 448 Kbps [Одноголосый, Гаврилов]
Language : Russian

Audio #6
ID : 7
Format : DTS
Format/Info : Digital Theater Systems
Codec ID : A_DTS
Duration : 1h 44mn
Bit rate mode : Constant
Bit rate : 1 510 Kbps
Channel(s) : 6 channels
Channel positions : Front: L C R, Surround: L R, LFE
Sampling rate : 48.0 KHz
Resolution : 24 bits
Stream size : 1.10 GiB (10%)
Title : DTS 5.1 1536 Kbps [Одноголосый, Живов]
Language : Russian

Text #1
ID : 8
Format : UTF-8
Codec ID : S_TEXT/UTF8
Codec ID/Info : UTF-8 Plain Text
Language : Russian

Text #2
ID : 9
Format : UTF-8
Codec ID : S_TEXT/UTF8
Codec ID/Info : UTF-8 Plain Text
Language : English
Свернуть

Скриншоты
ИзображениеИзображениеИзображениеИзображение
Свернуть
_________________
Я в контакте !
Не в сети
Профиль  
Начать новую темуОтветить на тему  [ 1 сообщение ] 
Вы не можете начинать темы
Вы не можете отвечать на сообщения
Вы не можете редактировать свои сообщения
Вы не можете удалять свои сообщения