Правила форума

  • В этом разделе создание новых тем Запрещено.
  • Для создания новых тем пользуйтесь Корневым разделом DVD и HD фильмы.
Начать новую темуОтветить на тему  [ Сообщений: 2 ] 
Торрент файл
Размер: 8.74 GB • Зарегистрирован: 3 года 10 месяцев • Статус: Проверено
Скачан: 13 раз • Желающих скачать: 0 • Поблагодарили: 7 раз
 Раздают: 0  |  0 KB/s  ]   Качают: 0  |  0 KB/s  ] 
 Полного источника не было 3 года 2 месяца 
Сообщения
 Добавлено: 2013-01-27 10:14
Модератор релиз-группы
Аватара пользователя
Стаж: 9 лет 1 месяц
Возраст: 97
Сообщений: 11659
Спасибок: 6530
Лайков: 269
Фальшивомонетчики / Die Falscher / Die Fälscher / The Counterfeiters



Изображение


Год выпуска: 2007
Страна: Германия, Австрия
Жанр: Военный, детектив, драма
Продолжительность: 01:38:30
Перевод: Профессиональный (многоголосый, закадровый)
Субтитры: Русские

Режиссер: Штефан Рузовицки

В ролях: Карл Маркович, Аугуст Диль, Дэвид Стризов, Мартин Брамбах, Аугуст Зирнер, Файт Штюбнер, Себастьян Урцендовски, Андреас Шмидт, Долорес Чаплин

Описание: Берлин, 1936 год. Соровиц — король фальшивомонетчиков. Однажды кто-то доносит на него и очень скоро он оказывается в концентрационном лагере. Соровиц предполагает худший вариант развития событий, но судьба дает ему еще один шанс 8 лет спустя. Идет 1944 год, и Третий Рейх уже обречен. Человек, отправивший его в лагерь, предлагает сделку: в обмен на гарантию жизни и приемлемые условия содержания, Соровиц с группой таких же, как и он, специалистов, должен поработать на фашистскую Германию — наладить промышленное производство поддельной валюты Союзников.
Изображение
Качество: BDRip 1080p
Формат: MKV
Видео кодек: H.264
Аудио кодек: AC3
Видео: 1916x1036, 11799 Kbps, 24 fps
Аудио1: Русский AC3 5.1, 48 KHz, 448 Kbps
Аудио2: Немецкий AC3 5.1, 48 KHz, 448 Kbps
Субтитры: Русские, английские
скриншоты
Изображение

Изображение

Изображение

Изображение
]
Свернуть
Mi
General
Unique ID : 194014911508738386026474366503666003365 (0x91F5E9AB81ABAD49896543974FC32DA5)
Complete name : D:\Falscher.2007.BD.Rip.1080p.h264.Rus.Ger.mkv
Format : Matroska
Format version : Version 1
File size : 8.74 GiB
Duration : 1h 38mn
Overall bit rate : 12.7 Mbps
Encoded date : UTC 2008-08-26 14:32:08
Writing application : mkvmerge v2.2.0 ('Turn It On Again') built on Mar 4 2008 12:58:26
Writing library : libebml v0.7.7 + libmatroska v0.8.1

Video
ID : 1
Format : AVC
Format/Info : Advanced Video Codec
Format profile : High@L4.1
Format settings, CABAC : Yes
Format settings, ReFrames : 4 frames
Codec ID : V_MPEG4/ISO/AVC
Duration : 1h 38mn
Bit rate : 11.8 Mbps
Width : 1 916 pixels
Height : 1 036 pixels
Display aspect ratio : 1.85:1
Frame rate mode : Constant
Frame rate : 24.000 fps
Color space : YUV
Chroma subsampling : 4:2:0
Bit depth : 8 bits
Scan type : Progressive
Bits/(Pixel*Frame) : 0.248
Stream size : 7.95 GiB (91%)
Writing library : x264 core 61 r947M af82aae
Encoding settings : cabac=1 / ref=4 / deblock=1:-3:-3 / analyse=0x3:0x113 / me=umh / subme=7 / psy_rd=1.0:0.0 / brdo=1 / mixed_ref=1 / me_range=32 / chroma_me=1 / trellis=0 / 8x8dct=1 / cqm=0 / deadzone=6,4 / chroma_qp_offset=-2 / threads=6 / nr=0 / decimate=1 / mbaff=0 / bframes=3 / b_pyramid=1 / b_adapt=1 / b_bias=0 / direct=3 / wpredb=1 / bime=1 / keyint=240 / keyint_min=24 / scenecut=40(pre) / rc=2pass / bitrate=11813 / ratetol=1.0 / rceq='blurCplx^(1-qComp)' / qcomp=1.00 / qpmin=10 / qpmax=51 / qpstep=4 / cplxblur=20.0 / qblur=0.5 / ip_ratio=1.40 / pb_ratio=1.30 / aq=2:1.00
Language : English
Default : Yes
Forced : No

Audio #1
ID : 2
Format : AC-3
Format/Info : Audio Coding 3
Mode extension : CM (complete main)
Format settings, Endianness : Big
Codec ID : A_AC3
Duration : 1h 38mn
Bit rate mode : Constant
Bit rate : 448 Kbps
Channel(s) : 6 channels
Channel positions : Front: L C R, Side: L R, LFE
Sampling rate : 48.0 KHz
Bit depth : 16 bits
Compression mode : Lossy
Stream size : 316 MiB (4%)
Title : AC3 5.1 448 kbps
Language : Russian
Default : Yes
Forced : No

Audio #2
ID : 3
Format : AC-3
Format/Info : Audio Coding 3
Mode extension : CM (complete main)
Format settings, Endianness : Big
Codec ID : A_AC3
Duration : 1h 38mn
Bit rate mode : Constant
Bit rate : 448 Kbps
Channel(s) : 6 channels
Channel positions : Front: L C R, Side: L R, LFE
Sampling rate : 48.0 KHz
Bit depth : 16 bits
Compression mode : Lossy
Stream size : 316 MiB (4%)
Title : AC3 5.1 448 kbps
Language : German
Default : No
Forced : No

Text #1
ID : 4
Format : UTF-8
Codec ID : S_TEXT/UTF8
Codec ID/Info : UTF-8 Plain Text
Language : Russian
Default : No
Forced : No

Text #2
ID : 5
Format : UTF-8
Codec ID : S_TEXT/UTF8
Codec ID/Info : UTF-8 Plain Text
Language : English
Default : No
Forced : No

Свернуть
_________________
Изображение
Не в сети
Профиль  
 Добавлено: 2013-01-27 10:52 (спустя 38 минут)
Аватара пользователя
Стаж: 9 лет
Сообщений: 117
Спасибок: 159
Лайков: 1
Смотрел в свое время по ТВ. Хороший фильм
Не в сети
Профиль  
Начать новую темуОтветить на тему  [ Сообщений: 2 ] 
Вы не можете начинать темы
Вы не можете отвечать на сообщения
Вы не можете редактировать свои сообщения
Вы не можете удалять свои сообщения