Правила форума

  • В этом разделе создание новых тем Запрещено.
  • Для создания новых тем пользуйтесь Корневым разделом DVD и HD фильмы.
Начать новую темуОтветить на тему  [ Сообщений: 3 ] 
Торрент файл
Размер: 5.63 GB • Зарегистрирован: 5 лет 2 месяца • Статус: Проверено
Скачан: 97 раз • Желающих скачать: 0 • Поблагодарили: 25 раз
 Раздают: 1  |  0 KB/s  ]   Качают: 0  |  0 KB/s  ] 
Сообщения
 Добавлено: 2011-09-19 18:53
Top-releaser
Аватара пользователя
Стаж: 6 лет 7 месяцев
Сообщений: 2078
Спасибок: 3230
Лайков: 9
Фантастическая четверка: Вторжение Серебряного серфера / Fantastic Four: Rise of the Silver Surfer

Изображение

Год выпуска: 2007
Страна: Германия, США, Канада, Великобритания
Жанр: фантастика, боевик, фэнтези, приключения
Продолжительность: 01:31:51
Перевод: Профессиональный (дублированный)
Режиссёр: Тим Стори
В ролях: Йоан Гриффит, Джессика Альба, Крис Эванс, Майкл Чиклис, Джулиан МакМэхон, Керри Вашингтон, Андре Брогер, Лоренс Фишбёрн, Даг Джонс
Описание: Фантастическая четверка получает вызов со стороны великого и могучего Серебряного Серфера — таинственного межгалактического вестника, который прилетает на Землю, чтобы подготовить ее к полному разрушению. Пока Серебряный Серфер носится по всему земному шару, разрушая все на своём пути, Рид, Сью, Джонни и Бен должны разгадать его тайну и найти способ противостоять внезапному появлению их смертельного врага — доктора Дума.

Раздача группы: Изображение

Качество: BDRip
Формат: MKV
Видео кодек: H.264
Аудио кодек: AC3, DTS
Видео: 1280x544, 5603 Кбит/сек, 23.976 кадр/сек
Аудио #1: DTS, 768 Кбит/сек, 6 каналов, 48.0 КГц - русский дубляж (лицензия, BD-CEE)
Аудио #2: AC3, 448 Кбит/сек, 6 каналов, 48.0 КГц - украинский дубляж (лицензия, BD-CEE)
Аудио #3: DTS, 1536 Кбит/сек, 6 каналов, 48.0 КГц - английский (оригинал)
Аудио #4: AC3, 224 Кбит/сек, 2 канала, 48.0 КГц - английский (комментарии 1)
Аудио #5: AC3, 224 Кбит/сек, 2 канала, 48.0 КГц - английский (комментарии 2)
Cубтитры: русские, английские, украинские

Скриншоты
Изображение

Изображение

Изображение

Изображение
Свернуть

MediaInfo
Общее
Уникальный идентификатор : 196167065610042184468071873446911260962 (0x9394670F3A1CA9E6973A038867BDB922)
Полное имя : L:\Фантастическая четверка Вторжение Серебряного серфера\Fantastic.Four.Rise.of.the.Silver.Surfer.720p.mkv
Формат : Matroska
Версия формата : Version 2
Размер файла : 5,63 Гбайт
Продолжительность : 1 ч. 31 м.
Общий поток : 8782 Кбит/сек
Название фильма : Fantastic Four: Rise of the Silver Surfer (2007) - Release for HDCLUB
Дата кодирования : UTC 2010-04-01 21:31:41
Программа кодирования : mkvmerge v3.3.0 ('Language') built on Mar 24 2010 14:59:24
Библиотека кодирования : libebml v0.8.0 + libmatroska v0.9.0

Видео
Идентификатор : 1
Формат : AVC
Формат/Информация : Advanced Video Codec
Профиль формата : High@L4.1
Параметр CABAC формата : Да
Параметр ReFrames формата : 11 кадров
Идентификатор кодека : V_MPEG4/ISO/AVC
Продолжительность : 1 ч. 31 м.
Битрейт : 5603 Кбит/сек
Ширина : 1280 пикселей
Высота : 532 пикселя
Соотношение сторон : 2,40:1
Частота кадров : 23,976 кадра/сек
Цветовое пространство : YUV
Субдискретизация насыщенности : 4:2:0
Битовая глубина : 8 бит
Тип развёртки : Прогрессивная
Бит/(Пиксели*Кадры) : 0.343
Размер потока : 3,49 Гбайт (62%)
Заголовок : Release for HDCLUB
Библиотека кодирования : x264 core 84 r1400M 20fa784
Настройки программы : cabac=1 / ref=11 / deblock=1:-3:-3 / analyse=0x3:0x113 / me=umh / subme=9 / psy=1 / psy_rd=1.0:0.0 / mixed_ref=1 / me_range=32 / chroma_me=1 / trellis=2 / 8x8dct=1 / cqm=0 / deadzone=21,11 / fast_pskip=0 / chroma_qp_offset=-2 / threads=12 / sliced_threads=0 / nr=0 / decimate=0 / mbaff=0 / constrained_intra=0 / bframes=8 / b_pyramid=2 / b_adapt=2 / b_bias=0 / direct=3 / wpredb=1 / wpredp=2 / keyint=240 / keyint_min=24 / scenecut=40 / intra_refresh=0 / rc_lookahead=80 / rc=2pass / mbtree=1 / bitrate=5603 / ratetol=1.0 / qcomp=0.80 / qpmin=10 / qpmax=51 / qpstep=4 / cplxblur=20.0 / qblur=0.5 / vbv_maxrate=50000 / vbv_bufsize=62500 / ip_ratio=1.40 / aq=1:0.80 / pulldown=0 / nal_hrd=0
Язык : English

Аудио #1
Идентификатор : 2
Формат : DTS
Формат/Информация : Digital Theater Systems
Идентификатор кодека : A_DTS
Продолжительность : 1 ч. 31 м.
Вид битрейта : Постоянный
Битрейт : 755 Кбит/сек
Каналы : 6 каналов
Расположение каналов : Front: L C R, Side: L R, LFE
Частота : 48,0 КГц
Битовая глубина : 24 бит
Метод сжатия : С потерями
Размер потока : 496 Мбайт (9%)
Заголовок : DTS 5.1 @ 768 kbps - Дублированный
Язык : Russian

Аудио #2
Идентификатор : 3
Формат : AC-3
Формат/Информация : Audio Coding 3
Расширение режима : CM (complete main)
Идентификатор кодека : A_AC3
Продолжительность : 1 ч. 31 м.
Вид битрейта : Постоянный
Битрейт : 448 Кбит/сек
Каналы : 6 каналов
Расположение каналов : Front: L C R, Side: L R, LFE
Частота : 48,0 КГц
Битовая глубина : 16 бит
Метод сжатия : С потерями
Размер потока : 294 Мбайт (5%)
Заголовок : AC3 5.1 @ 448 kbps - Дублированный
Язык : Ukrainian

Аудио #3
Идентификатор : 4
Формат : DTS
Формат/Информация : Digital Theater Systems
Идентификатор кодека : A_DTS
Продолжительность : 1 ч. 31 м.
Вид битрейта : Постоянный
Битрейт : 1510 Кбит/сек
Каналы : 6 каналов
Расположение каналов : Front: L C R, Side: L R, LFE
Частота : 48,0 КГц
Битовая глубина : 24 бит
Метод сжатия : С потерями
Размер потока : 992 Мбайт (17%)
Заголовок : DTS 5.1 @ 1536 kbps
Язык : English

Аудио #4
Идентификатор : 5
Формат : AC-3
Формат/Информация : Audio Coding 3
Расширение режима : CM (complete main)
Идентификатор кодека : A_AC3
Продолжительность : 1 ч. 31 м.
Вид битрейта : Постоянный
Битрейт : 224 Кбит/сек
Каналы : 2 канала
Расположение каналов : Front: L R
Частота : 48,0 КГц
Битовая глубина : 16 бит
Метод сжатия : С потерями
Размер потока : 147 Мбайт (3%)
Заголовок : AC3 2.0 @ 224 kbps - Комментарии 1
Язык : English

Аудио #5
Идентификатор : 6
Формат : AC-3
Формат/Информация : Audio Coding 3
Расширение режима : CM (complete main)
Идентификатор кодека : A_AC3
Продолжительность : 1 ч. 31 м.
Вид битрейта : Постоянный
Битрейт : 224 Кбит/сек
Каналы : 2 канала
Расположение каналов : Front: L R
Частота : 48,0 КГц
Битовая глубина : 16 бит
Метод сжатия : С потерями
Размер потока : 147 Мбайт (3%)
Заголовок : AC3 2.0 @ 224 kbps - Комментарии 2
Язык : English

Текст #1
Идентификатор : 7
Формат : UTF-8
Идентификатор кодека : S_TEXT/UTF8
Идентификатор кодека/Информация : UTF-8 Plain Text
Язык : Russian

Текст #2
Идентификатор : 8
Формат : UTF-8
Идентификатор кодека : S_TEXT/UTF8
Идентификатор кодека/Информация : UTF-8 Plain Text
Язык : Ukrainian

Текст #3
Идентификатор : 9
Формат : UTF-8
Идентификатор кодека : S_TEXT/UTF8
Идентификатор кодека/Информация : UTF-8 Plain Text
Язык : English

Текст #4
Идентификатор : 10
Формат : UTF-8
Идентификатор кодека : S_TEXT/UTF8
Идентификатор кодека/Информация : UTF-8 Plain Text
Заголовок : Комментарии 1
Язык : Russian

Текст #5
Идентификатор : 11
Формат : UTF-8
Идентификатор кодека : S_TEXT/UTF8
Идентификатор кодека/Информация : UTF-8 Plain Text
Заголовок : Комментарии 2
Язык : Russian

Меню
00:00:00.000 : en:00:00:00.000
00:05:59.734 : en:00:05:59.734
00:09:44.459 : en:00:09:44.459
00:13:49.328 : en:00:13:49.328
00:18:16.637 : en:00:18:16.637
00:23:25.112 : en:00:23:25.112
00:26:47.189 : en:00:26:47.189
00:31:33.016 : en:00:31:33.016
00:33:36.056 : en:00:33:36.056
00:37:06.599 : en:00:37:06.599
00:38:34.938 : en:00:38:34.938
00:40:26.466 : en:00:40:26.466
00:41:52.510 : en:00:41:52.510
00:45:40.655 : en:00:45:40.655
00:48:32.159 : en:00:48:32.159
00:50:13.260 : en:00:50:13.260
00:53:59.820 : en:00:53:59.820
00:55:34.414 : en:00:55:34.414
01:00:12.442 : en:01:00:12.442
01:02:21.905 : en:01:02:21.905
01:06:06.045 : en:01:06:06.045
01:09:25.995 : en:01:09:25.995
01:12:36.352 : en:01:12:36.352
01:15:30.860 : en:01:15:30.860
01:18:01.552 : en:01:18:01.552
01:23:16.325 : en:01:23:16.325
01:24:35.737 : en:01:24:35.737
01:26:30.143 : en:01:26:30.143
Свернуть


Последний раз редактировалось yyuuii1223 2011-09-21 18:28, всего редактировалось 1 раз.
Не в сети
Профиль  
 Добавлено: 2011-09-19 19:05 (спустя 12 минут)
Аватара пользователя
Стаж: 8 лет 3 месяца
Возраст: 43
Сообщений: 3290
Спасибок: 21012
Лайков: 3
Убавьте пожалуйста постер, он должен быть не более 550 точек по ширине :)
_________________
Изображение
Не в сети
Профиль  
 Добавлено: 2014-10-27 22:14 (спустя 3 года 1 месяц)
Стаж: 5 лет 4 месяца
Сообщений: 29
Дайте скорости :bra_vo:
Не в сети
Профиль  
Начать новую темуОтветить на тему  [ Сообщений: 3 ] 
Вы не можете начинать темы
Вы не можете отвечать на сообщения
Вы не можете редактировать свои сообщения
Вы не можете удалять свои сообщения