Правила форума

  • В этом разделе создание новых тем Запрещено.
  • Для создания новых тем пользуйтесь Корневым разделом DVD и HD фильмы.
Начать новую темуОтветить на тему  [ Сообщений: 7 ] 
Торрент файл
Размер: 9.22 GB • Зарегистрирован: 4 года 7 месяцев • Статус: Проверено
Скачан: 266 раз • Желающих скачать: 0 • Поблагодарили: 39 раз
 Раздают: 0  |  0 KB/s  ]   Качают: 0  |  0 KB/s  ] 
 Полного источника не было 16 дней 
Сообщения
 Добавлено: 2012-04-17 00:34
Руководитель релиз-группы
Аватара пользователя
Стаж: 7 лет 5 месяцев
Возраст: 31
Сообщений: 3406
Спасибок: 46729
Лайков: 5
Изображение

Фантом


Год выпуска: 2011
Страна: США, Россия
Слоган: «Survive The Holidays»
Жанр: фантастика, триллер
Продолжительность: 01:29:16
Перевод: Профессиональный (полное дублирование) [Лицензия]
Режиссер: Крис Горак
Сценарий: Джон Спэйтс, Лесли Боэм, М.Т. Ахерн
Продюсер: Тимур Бекмамбетов, Том Джейкобсон, Стивен А. Маринаццио II
Оператор: Скотт Кеван
Композитор: Тайлер Бейтс
В ролях: Эмиль Хирш, Оливия Тирлби, Макс Мингелла, Рэйчел Тейлор, Йоэль Чиннаман, Вероника Вернадская, Дато Бахтадзе, Гоша Куценко, Николай Ефремов, Артур Смольянинов
Бюджет: $30 000 000
Сборы в США: $21 443 494
Сборы в России: $7 369 595
Сборы в мире: $64 626 786
Описание: Фильм расскажет про четырех американских туристов, оказавшихся в Москве в момент нападения на нее инопланетян.
Изображение
MPAA: Изображение
Мировая премьера: 22 декабря 2011
Релиз на DVD: 26 апреля 2012, «Двадцатый Век Фокс СНГ»
Релиз на Blu-ray: 26 апреля 2012, «Двадцатый Век Фокс СНГ»
Релиз группы: Изображение
Раздача группы: Изображение
Качество: BDRip, 1080p
Формат: MKV
Видео: AVC; 1920x800 (2.40:1); 12208 Kbps; 23,976 fps; 0,332 bit/pixel
Аудио №1: AC3; 384 Kbps; CBR; 6 chRussian
Аудио №2: AC3; 384 Kbps; CBR; 6 ch Ukrainian
Аудио №3: DTS; 1509 Kbps; CBR; 6 ch; 24 bit English
Субтитры: Russian, English
Изображение
MediaInfo
Формат : Matroska
Версия формата : Version 2
Размер файла : 9,22 Гбайт
Продолжительность : 1 ч. 29 м.
Общий поток : 14,8 Мбит/сек
Название фильма : Fantom.2011.D.BDRip.1080p.ELEKTRI4KA
Дата кодирования : UTC 2012-04-16 18:36:19
Программа кодирования : mkvmerge v5.3.0 ('I could have danced') built on Feb 9 2012 10:38:07
Библиотека кодирования : libebml v1.2.3 + libmatroska v1.3.0

Видео
Идентификатор : 1
Формат : AVC
Формат/Информация : Advanced Video Codec
Профиль формата : High@L4.1
Параметр CABAC формата : Да
Параметр ReFrames формата : 5 кадров
Идентификатор кодека : V_MPEG4/ISO/AVC
Продолжительность : 1 ч. 29 м.
Битрейт : 12,6 Мбит/сек
Ширина : 1920 пикс.
Высота : 800 пикс.
Соотношение сторон : 2,40:1
Частота кадров : 23,976 кадр/сек
Цветовое пространство : YUV
Подвыборка цветности : 4:2:0
Битовая глубина : 8 бит
Тип развёртки : Прогрессивная
Бит/(Пиксели*Кадры) : 0.341
Размер потока : 7,61 Гбайт (83%)
Заголовок : Fantom.2011.D.BDRip.1080p.ELEKTRI4KA
Библиотека кодирования : x264 core 122 r2184 5c85e0a
Настройки программы : cabac=1 / ref=5 / deblock=1:-3:-3 / analyse=0x3:0x113 / me=umh / subme=10 / psy=1 / psy_rd=1.10:0.00 / mixed_ref=1 / me_range=32 / chroma_me=1 / trellis=2 / 8x8dct=1 / cqm=0 / deadzone=21,11 / fast_pskip=0 / chroma_qp_offset=-4 / threads=18 / sliced_threads=0 / nr=0 / decimate=0 / interlaced=0 / bluray_compat=0 / constrained_intra=0 / bframes=8 / b_pyramid=2 / b_adapt=2 / b_bias=0 / direct=3 / weightb=1 / open_gop=0 / weightp=2 / keyint=250 / keyint_min=23 / scenecut=40 / intra_refresh=0 / rc_lookahead=48 / rc=2pass / mbtree=1 / bitrate=12566 / ratetol=1.0 / qcomp=0.60 / qpmin=0 / qpmax=69 / qpstep=4 / cplxblur=20.0 / qblur=0.5 / ip_ratio=1.40 / aq=1:0.80
Язык : English

Аудио #1
Идентификатор : 2
Формат : AC-3
Формат/Информация : Audio Coding 3
Расширение режима : CM (complete main)
Идентификатор кодека : A_AC3
Продолжительность : 1 ч. 29 м.
Вид битрейта : Постоянный
Битрейт : 384 Кбит/сек
Каналы : 6 каналов
Расположение каналов : Front: L C R, Side: L R, LFE
Частота : 48,0 КГц
Битовая глубина : 16 бит
Метод сжатия : С потерями
Размер потока : 245 Мбайт (3%)
Язык : Russian

Аудио #2
Идентификатор : 3
Формат : AC-3
Формат/Информация : Audio Coding 3
Расширение режима : CM (complete main)
Идентификатор кодека : A_AC3
Продолжительность : 1 ч. 29 м.
Вид битрейта : Постоянный
Битрейт : 384 Кбит/сек
Каналы : 6 каналов
Расположение каналов : Front: L C R, Side: L R, LFE
Частота : 48,0 КГц
Битовая глубина : 16 бит
Метод сжатия : С потерями
Размер потока : 245 Мбайт (3%)
Язык : Ukrainian

Аудио #3
Идентификатор : 4
Формат : DTS
Формат/Информация : Digital Theater Systems
Идентификатор кодека : A_DTS
Продолжительность : 1 ч. 29 м.
Вид битрейта : Постоянный
Битрейт : 1510 Кбит/сек
Каналы : 6 каналов
Расположение каналов : Front: L C R, Side: L R, LFE
Частота : 48,0 КГц
Битовая глубина : 24 бит
Метод сжатия : С потерями
Размер потока : 964 Мбайт (10%)
Язык : English

Текст #1
Идентификатор : 5
Формат : UTF-8
Идентификатор кодека : S_TEXT/UTF8
Идентификатор кодека/Информация : UTF-8 Plain Text
Язык : Russian

Текст #2
Идентификатор : 6
Формат : UTF-8
Идентификатор кодека : S_TEXT/UTF8
Идентификатор кодека/Информация : UTF-8 Plain Text
Язык : English
Свернуть
Скриншоты

Изображение
Изображение
Изображение
Изображение
Свернуть
Не в сети
Профиль  
 Добавлено: 2012-04-17 00:36 (спустя 2 минуты)
Модератор
Аватара пользователя
Стаж: 6 лет 10 месяцев
Возраст: 33
Сообщений: 5908
Спасибок: 61265
Лайков: 3540
Отлично.
_________________
ИзображениеИзображение Изображение
Изображение
Не в сети
Профиль  
 Добавлено: 2012-04-17 16:41 (спустя 16 часов)
Аватара пользователя
Стаж: 9 лет
Сообщений: 100
Спасибок: 338
Лайков: 1
за релиз конечно спасибо, но это полный бред. Лучшеб я этот фильм никогда не смотрел.
Не в сети
Профиль  
 Добавлено: 2012-04-17 17:59 (спустя 1 час 17 минут)
Супермодератор Инквизиции
Аватара пользователя
Стаж: 8 лет 3 месяца
Возраст: 51
Сообщений: 37878
Спасибок: 1089
Лайков: 2725
AK47
почему? из-за Гоши Куценко?
_________________
████████████ - сотри монеткой, чтобы получить пароль от этого аккаунта
Пират у копираста спиратил пиастры, копираст у пирата скопипастил фрегат :ps_ih:
Не в сети
Профиль  
 Добавлено: 2012-04-18 20:20 (спустя 1 день 2 часа)
Местный Агрессор
Аватара пользователя
Стаж: 9 лет
Возраст: 37
Сообщений: 31889
Спасибок: 1614
Лайков: 2404

AK47:

Лучшеб я этот фильм никогда не смотрел.
+1
Смесь из Скайлайна, Сталкера, Метро, Куценки и ещё хз чего. Винегрет полный, приправленный бредовым патриотизмом-"Нам отступать некуда-позади Москва!" Изображение
_________________
Очень трудно с умным лицом слушать человека, которого мысленно ты уже трахаешь.
Не в сети
Профиль  
 Добавлено: 2012-04-18 21:09 (спустя 49 минут)
Супермодератор Инквизиции
Аватара пользователя
Стаж: 8 лет 3 месяца
Возраст: 51
Сообщений: 37878
Спасибок: 1089
Лайков: 2725
ооо... надо заценить...
Cкрытый текст
:-D
Свернуть
_________________
████████████ - сотри монеткой, чтобы получить пароль от этого аккаунта
Пират у копираста спиратил пиастры, копираст у пирата скопипастил фрегат :ps_ih:
Не в сети
Профиль  
 Добавлено: 2012-04-20 19:38 (спустя 1 день 22 часа)
Стаж: 5 лет 3 месяца
Сообщений: 150
Лайков: 2
Ели сдерживался что бы не блевануть на монитор!!!Такая Х..Я!!!
Не в сети
Профиль  
Начать новую темуОтветить на тему  [ Сообщений: 7 ] 
Вы не можете начинать темы
Вы не можете отвечать на сообщения
Вы не можете редактировать свои сообщения
Вы не можете удалять свои сообщения