Правила форума

  • В этом разделе создание новых тем Запрещено.
  • Для создания новых тем пользуйтесь Корневым разделом DVD и HD фильмы.
Начать новую темуОтветить на тему  [ 1 сообщение ] 
Торрент файл
Размер: 6.7 GB • Зарегистрирован: 3 года 4 месяца • Статус: T Временный релиз
Скачан: 84 раза • Желающих скачать: 0 • Поблагодарили: 20 раз
 Раздают: 0  |  0 KB/s  ]   Качают: 0  |  0 KB/s  ] 
 Полного источника не было 2 года 1 месяц 
Сообщения
 Добавлено: 2013-07-19 19:56
Книголюб
Аватара пользователя
Стаж: 7 лет 2 месяца
Сообщений: 2823
Спасибок: 48823
Лайков: 73
Фантом
Phantom

«You'll never see it coming.»

Изображение


Год выпуска: 2013
Страна: США (RCR Media Group, Trilogy Entertainment Group, Solar Filmworks)
Слоган:
Жанр: Триллер
Продолжительность: 01:38:28
Перевод:
Любительский (многоголосый закадровый)
Любительский (одноголосый закадровый)
Авторский одноголосый

Режиссёр: Тодд Робинсон
В ролях: Эд Харрис, Уильям Фихтнер, Дэвид Духовны, Лэнс Хенриксен, Джонатон Шэк, Джейсон Бег, Шон Патрик Флэнери, Джейсон Грей-Стенфорд, Джулиан Адамс, Дагмара Доминчук, Мэтт Бушелл, Брайан Перри, Эшли Селих, Дерек Магияр, Уэйн Скотт Миллер, Остин Огер ...
Описание: Капитан советской подводной лодки держит в своих руках судьбу всего мира. Вынужденному покинуть свою семью, ему приходится возглавить секретную миссию окутанную тайной…
Рейтинг MPAA: Рейтинг R (Подростки до 17 лет допускаются на фильм только в сопровождении одного из родителей)
Мировая премьера: 1 марта 2013
Изображение 5.779572

Качество: BDRip 720p
Формат: MKV
Видео кодек: H264 (AVC)
Аудио кодек: AC3 (Dolby Digital)
Видео: 1280x544 23.976fps 6 666 Kbps
Аудио #1: RUS: 48.0 KHz 448 Kbps 6 channels[Русский, MVO Green Tea]
Аудио #2: RUS: 48.0 KHz 448 Kbps 6 channels[Русский, AVO А.Дольский]
Аудио #3: RUS: 48.0 KHz 448 Kbps 6 channels[Русский, VO den904]
Аудио #4: ENG: 48.0 KHz 1 510 Kbps 6 channels[Английский]
Аудио #5: ENG: 48.0 KHz 224 Kbps 2 channels[Английский-комментарии]

MediaInfo
General
Unique ID : 231200519870142764436063155482526526545 (0xADEF99B646FB236AAC1D9C049F6CAC51)
Complete name : K:\Torrent\Phantom..mkv
Format : Matroska
Format version : Version 2
File size : 6.70 GiB
Duration : 1h 38mn
Overall bit rate : 9 742 Kbps
Movie name : Phantom.2013.BDRip.1080p.GIU
Encoded date : UTC 2013-06-28 15:01:54
Writing application : mkvmerge v2.9.9 ('Tutu') built on Nov 25 2009 21:13:32
Writing library : libebml v0.7.9 + libmatroska v0.8.1

Video
ID : 1
Format : AVC
Format/Info : Advanced Video Codec
Format profile : High@L4.1
Format settings, CABAC : Yes
Format settings, ReFrames : 12 frames
Codec ID : V_MPEG4/ISO/AVC
Duration : 1h 38mn
Bit rate : 6 666 Kbps
Width : 1 280 pixels
Height : 544 pixels
Display aspect ratio : 2.35:1
Frame rate : 23.976 fps
Color space : YUV
Chroma subsampling : 4:2:0
Bit depth : 8 bits
Scan type : Progressive
Bits/(Pixel*Frame) : 0.399
Stream size : 4.45 GiB (66%)
Title : -=Rip by GIU=-
Writing library : x264 core 133 r2334 a3ac64b
Encoding settings : cabac=1 / ref=12 / deblock=1:-3:-3 / analyse=0x3:0x113 / me=umh / subme=11 / psy=1 / psy_rd=1.00:0.50 / mixed_ref=1 / me_range=64 / chroma_me=1 / trellis=2 / 8x8dct=1 / cqm=0 / deadzone=21,11 / fast_pskip=1 / chroma_qp_offset=-4 / threads=12 / lookahead_threads=2 / sliced_threads=0 / nr=0 / decimate=1 / interlaced=0 / bluray_compat=0 / constrained_intra=0 / bframes=8 / b_pyramid=2 / b_adapt=2 / b_bias=0 / direct=3 / weightb=1 / open_gop=0 / weightp=2 / keyint=240 / keyint_min=23 / scenecut=40 / intra_refresh=0 / rc_lookahead=40 / rc=2pass / mbtree=1 / bitrate=6666 / ratetol=1.0 / qcomp=0.80 / qpmin=5 / qpmax=51 / qpstep=4 / cplxblur=20.0 / qblur=0.5 / ip_ratio=1.40 / aq=1:1.00
Language : English
Default : No
Forced : No

Audio #1
ID : 2
Format : AC-3
Format/Info : Audio Coding 3
Mode extension : CM (complete main)
Codec ID : A_AC3
Duration : 1h 38mn
Bit rate mode : Constant
Bit rate : 448 Kbps
Channel(s) : 6 channels
Channel positions : Front: L C R, Side: L R, LFE
Sampling rate : 48.0 KHz
Bit depth : 16 bits
Compression mode : Lossy
Stream size : 316 MiB (5%)
Title : AC3.448.Kbps (6ch) Russian [Green Tea]
Language : Russian
Default : Yes
Forced : No

Audio #2
ID : 3
Format : AC-3
Format/Info : Audio Coding 3
Mode extension : CM (complete main)
Codec ID : A_AC3
Duration : 1h 38mn
Bit rate mode : Constant
Bit rate : 448 Kbps
Channel(s) : 6 channels
Channel positions : Front: L C R, Side: L R, LFE
Sampling rate : 48.0 KHz
Bit depth : 16 bits
Compression mode : Lossy
Stream size : 316 MiB (5%)
Title : AC3.448.Kbps (6ch) Russian [А.Дольский]
Language : Russian
Default : No
Forced : No

Audio #3
ID : 4
Format : AC-3
Format/Info : Audio Coding 3
Mode extension : CM (complete main)
Codec ID : A_AC3
Duration : 1h 38mn
Bit rate mode : Constant
Bit rate : 448 Kbps
Channel(s) : 6 channels
Channel positions : Front: L C R, Side: L R, LFE
Sampling rate : 48.0 KHz
Bit depth : 16 bits
Compression mode : Lossy
Stream size : 316 MiB (5%)
Title : AC3.448.Kbps (6ch) Russian [den904]
Language : Russian
Default : No
Forced : No

Audio #4
ID : 5
Format : DTS
Format/Info : Digital Theater Systems
Codec ID : A_DTS
Duration : 1h 38mn
Bit rate mode : Constant
Bit rate : 1 510 Kbps
Channel(s) : 6 channels
Channel positions : Front: L C R, Side: L R, LFE
Sampling rate : 48.0 KHz
Bit depth : 24 bits
Compression mode : Lossy
Stream size : 1.04 GiB (15%)
Title : DTS.1510.Kbps (6ch) English
Language : English
Default : No
Forced : No

Audio #5
ID : 6
Format : AC-3
Format/Info : Audio Coding 3
Mode extension : CM (complete main)
Codec ID : A_AC3
Duration : 1h 38mn
Bit rate mode : Constant
Bit rate : 224 Kbps
Channel(s) : 2 channels
Channel positions : Front: L R
Sampling rate : 48.0 KHz
Bit depth : 16 bits
Compression mode : Lossy
Stream size : 158 MiB (2%)
Title : AC3.224.Kbps (2ch) English (Commentary)
Language : English
Default : No
Forced : No

Text #1
ID : 7
Format : UTF-8
Codec ID : S_TEXT/UTF8
Codec ID/Info : UTF-8 Plain Text
Title : English (Full)
Language : English
Default : No
Forced : No

Text #2
ID : 8
Format : UTF-8
Codec ID : S_TEXT/UTF8
Codec ID/Info : UTF-8 Plain Text
Title : English (SDH)
Language : English
Default : No
Forced : No

Text #3
ID : 9
Format : UTF-8
Codec ID : S_TEXT/UTF8
Codec ID/Info : UTF-8 Plain Text
Title : English (SDH-Colored)
Language : English
Default : No
Forced : No

Text #4
ID : 10
Format : UTF-8
Codec ID : S_TEXT/UTF8
Codec ID/Info : UTF-8 Plain Text
Title : Spanish (Full - Latin)
Language : Spanish
Default : No
Forced : No

Menu
00:00:00.000 : en:Chapter 00
00:03:47.143 : en:Chapter 01
00:08:23.336 : en:Chapter 02
00:11:38.072 : en:Chapter 03
00:16:00.334 : en:Chapter 04
00:19:33.380 : en:Chapter 05
00:24:57.913 : en:Chapter 06
00:27:55.715 : en:Chapter 07
00:31:39.063 : en:Chapter 08
00:37:07.975 : en:Chapter 09
00:42:37.721 : en:Chapter 10
00:47:16.834 : en:Chapter 11
00:51:54.486 : en:Chapter 12
00:56:09.824 : en:Chapter 13
00:59:47.792 : en:Chapter 14
01:03:51.661 : en:Chapter 15
01:07:53.235 : en:Chapter 16
01:10:04.158 : en:Chapter 17
01:13:33.492 : en:Chapter 18
01:16:47.311 : en:Chapter 19
01:20:48.844 : en:Chapter 20
01:24:20.805 : en:Chapter 21
01:26:20.049 : en:Chapter 22
01:30:17.578 : en:Chapter 23


Свернуть


Скриншоты
Изображение
Изображение
Изображение
Изображение
Свернуть
Не в сети
Профиль  
Начать новую темуОтветить на тему  [ 1 сообщение ] 
Вы не можете начинать темы
Вы не можете отвечать на сообщения
Вы не можете редактировать свои сообщения
Вы не можете удалять свои сообщения