Правила форума

  • В этом разделе создание новых тем Запрещено.
  • Для создания новых тем пользуйтесь Корневым разделом DVD и HD фильмы.
Начать новую темуОтветить на тему  [ Сообщений: 4 ] 
Торрент файл
Размер: 3.73 GB • Зарегистрирован: 3 года 11 месяцев • Статус: T Временный релиз
Скачан: 38 раз • Желающих скачать: 0 • Поблагодарили: 12 раз
 Раздают: 0  |  0 KB/s  ]   Качают: 0  |  0 KB/s  ] 
 Полного источника не было 1 месяц 10 дней 
Сообщения
 Добавлено: 2012-12-26 16:29
Модератор
Аватара пользователя
Стаж: 6 лет 10 месяцев
Возраст: 33
Сообщений: 5908
Спасибок: 61265
Лайков: 3540
Изображение

Филадельфийский эксперимент
The Philadelphia Experiment


Год выпуска: 2012
Страна: Канада
Жанр: фантастика, триллер, детектив
Продолжительность: 01:28:53
Перевод: Любительский (одноголосый)
Режиссер: Пол Зиллер
Сценарий: Энди Бриггс
Продюсер: Джон Принц, Том Берри, Лиза М. Хансен
Оператор: Майкл С. Бланделл
Композитор: Майкл Нилсон
В ролях: Николас Лиа, Райан Роббинс, Джина Холден, Лауро Чартрэнд, Эллисон Хоссак, Dmytro Kolesnyk, Чад Кровчук, Том МакБет, Малкольм МакДауэлл, Майкл Паре, Марк Поусон, Джон Рирдон

Описание: Целью секретного правительственного исследования является создание оборудования по повторению, так называемого, «Филадельфийского эксперимента» Второй мировой войны, который позволял делать невидимыми военные корабли. Успешно проведенный в наши дни эксперимент возвращает ранее исчезнувший в 1943г. эсминец «Элдридж». Но он приносит в 21 век только смерть и разрушения. Единственный оставшийся в живых после первого эксперимента Леа и его внучка, пытаются остановить это безумие.
Изображение
Мировая премьера: 28 июля 2012
Изображение
Раздача группы: Изображение
Качество: BDRip, 720p
Формат: Matroska
Видео: AVC; 1280x720 (16:9); 4745 Kbps; 23,976 fps; 0,215 bit/pixel
Аудио №1: Russian; AC3; 384 Kbps; CBR; 6 ch
Аудио №2: English; DTS; 754 Kbps; CBR; 6 ch; 16 bit

mediainfo

Complete name : Filadel'fijskij jeksperiment.2012.L1.BDRip.720p.Rus.Eng.Goliaf.mkv
Format : Matroska
File size : 3.73 GiB
Duration : 1h 28mn
Overall bit rate : 6 004 Kbps
Encoded date : UTC 2012-12-26 11:05:44
Writing application : mkvmerge v3.0.0 ('Hang up your Hang-Ups') built on Dec 12 2009 15:20:35
Writing library : libebml v0.7.9 + libmatroska v0.8.1

Video
ID : 1
Format : AVC
Format/Info : Advanced Video Codec
Format profile : High@L4.1
Format settings, CABAC : Yes
Format settings, ReFrames : 9 frames
Codec ID : V_MPEG4/ISO/AVC
Duration : 1h 28mn
Bit rate : 4 852 Kbps
Width : 1 280 pixels
Height : 720 pixels
Display aspect ratio : 16:9
Frame rate : 23.976 fps
Color space : YUV
Chroma subsampling : 4:2:0
Bit depth : 8 bits
Scan type : Progressive
Bits/(Pixel*Frame) : 0.220
Stream size : 2.95 GiB (79%)
Title : Goliaf.tv
Writing library : x264 core 129 r2230 1cffe9f
Encoding settings : cabac=1 / ref=9 / deblock=1:-3:-3 / analyse=0x3:0x133 / me=umh / subme=10 / psy=1 / psy_rd=1.00:0.10 / mixed_ref=1 / me_range=48 / chroma_me=1 / trellis=2 / 8x8dct=1 / cqm=0 / deadzone=21,11 / fast_pskip=0 / chroma_qp_offset=-3 / threads=12 / lookahead_threads=2 / sliced_threads=0 / nr=0 / decimate=0 / interlaced=0 / bluray_compat=0 / constrained_intra=0 / bframes=8 / b_pyramid=2 / b_adapt=2 / b_bias=0 / direct=3 / weightb=1 / open_gop=0 / weightp=2 / keyint=360 / keyint_min=2 / scenecut=40 / intra_refresh=0 / rc_lookahead=60 / rc=2pass / mbtree=1 / bitrate=4852 / ratetol=1.0 / qcomp=0.70 / qpmin=0 / qpmax=69 / qpstep=4 / cplxblur=20.0 / qblur=0.5 / vbv_maxrate=50000 / vbv_bufsize=30000 / nal_hrd=none / ip_ratio=1.10 / aq=2:1.00
Language : English

Audio #1
ID : 2
Format : AC-3
Format/Info : Audio Coding 3
Mode extension : CM (complete main)
Codec ID : A_AC3
Duration : 1h 28mn
Bit rate mode : Constant
Bit rate : 384 Kbps
Channel(s) : 6 channels
Channel positions : Front: L C R, Side: L R, LFE
Sampling rate : 48.0 KHz
Bit depth : 16 bits
Compression mode : Lossy
Stream size : 244 MiB (6%)
Language : Russian

Audio #2
ID : 3
Format : DTS
Format/Info : Digital Theater Systems
Codec ID : A_DTS
Duration : 1h 28mn
Bit rate mode : Constant
Bit rate : 755 Kbps
Channel(s) : 6 channels
Channel positions : Front: L C R, Side: L R, LFE
Sampling rate : 48.0 KHz
Bit depth : 16 bits
Compression mode : Lossy
Stream size : 480 MiB (13%)
Language : English
Свернуть
Скриншоты

Изображение
Изображение
Изображение
Изображение
Свернуть
_________________
ИзображениеИзображение Изображение
Изображение
 tany1984 и di-ys1 нравится это.
Не в сети
Профиль  
 Добавлено: 2012-12-26 21:41 (спустя 5 часов)
Аватара пользователя
Стаж: 8 лет 2 месяца
Сообщений: 358
Спасибок: 744
Лайков: 13
Как кино то?
Не в сети
Профиль  
 Добавлено: 2012-12-26 21:50 (спустя 8 минут)
Аватара пользователя
Стаж: 8 лет 3 месяца
Сообщений: 231
Спасибок: 29
уух, спецэффекты на высоте судя по второму скрину
Не в сети
Профиль  
 Добавлено: 2012-12-26 22:37 (спустя 46 минут)
Аватара пользователя
Стаж: 8 лет 2 месяца
Сообщений: 358
Спасибок: 744
Лайков: 13
Полнейший трешак, уж даже я любитель такой мути, и то не смог выдержать более 30 мин ))))
Не в сети
Профиль  
Начать новую темуОтветить на тему  [ Сообщений: 4 ] 
Вы не можете начинать темы
Вы не можете отвечать на сообщения
Вы не можете редактировать свои сообщения
Вы не можете удалять свои сообщения